TAMILTORRENTS  
Invite Your Friends Torrents



TT-Tube | Categories | Best Videos | Best Photos | Most viewed | Most voted

Go Back   TAMILTORRENTS > Tamil Releases > Tamil Rips > Web/Pre-DVD-Rip
Web/Pre-DVD-Rip Section for Tamil Movies ripped from Pre DVD's, DVD'Scr and WebRip.


Reply
 
Thread Tools
(#1)
Old
myviswaroopam's Avatar
myviswaroopam myviswaroopam is offline
| TT - Releaser |
Points: 301,728, Level: 1 Points: 301,728, Level: 1 Points: 301,728, Level: 1
Level up: 99% Level up: 99% Level up: 99%
Activity: 0% Activity: 0% Activity: 0%
Rep Power: 848
myviswaroopam myviswaroopam myviswaroopam myviswaroopam myviswaroopam myviswaroopam myviswaroopam myviswaroopam myviswaroopam myviswaroopam myviswaroopam
 
Smile Enakku Innoru Per Iruku(2016)~720P~WebHdRip~AAC2.1~ESubs~700mb~TTT - 07-22-2016, 07:49 AM

Enakku Innoru Per Iruku(2016)~720P~WebHdRip~AAC2.1~ESubs~700mb~TTT


Movie InFo

Code:
Directed by 	Sam Anton
Produced by 	A. Subashkaran
Written by 	Sam Anton
Starring 	G. V. Prakash Kumar
Anandhi
Music by 	G. V. Prakash Kumar
Cinematography 	Krishnan Vasant
Edited by 	Ruben
Production
company
	
Lyca Productions
Release dates
	

    17 June 2016

Running time
	1 hour 57 minutes
Country 	India
Language 	Tamil

Media InFo

Code:
AAC2.1@700MB:


Format                                   : Matroska
Format version                           : Version 4 / Version 2
File size                                : 698 MiB
Duration                                 : 2h 9mn
Overall bit rate                         : 755 Kbps


Video
ID                                       : 2
Format                                   : AVC
Format/Info                              : Advanced Video Codec
Format profile                           : High@L3.1
Format settings, CABAC                   : Yes
Format settings, ReFrames                : 4 frames
Codec ID                                 : V_MPEG4/ISO/AVC
Duration                                 : 2h 9mn
Bit rate                                 : 683 Kbps
Width                                    : 1 280 pixels
Height                                   : 544 pixels
Display aspect ratio                     : 2.35:1
Frame rate mode                          : Constant
Frame rate                               : 24.000 fps
Color space                              : YUV
Chroma subsampling                       : 4:2:0
Bit depth                                : 8 bits
Scan type                                : Progressive
Bits/(Pixel*Frame)                       : 0.041
Stream size                              : 631 MiB (90%)
Writing library                          : x264 core 
Default                                  : Yes
Forced                                   : No

Audio
ID                                       : 3
Format                                   : AAC
Format/Info                              : Advanced Audio Codec
Format profile                           : HE-AAC / LC
Codec ID                                 : A_AAC
Duration                                 : 2h 9mn
Bit rate                                 : 70.0 Kbps
Channel(s)                               : 2 channels
Channel positions                        : Front: L R
Sampling rate                            : 44.1 KHz / 22.05 KHz
Frame rate                               : 21.533 fps (1024 spf)
Compression mode                         : Lossy
Delay relative to video                  : 33ms
Stream size                              : 64.7 MiB (9%)
Default                                  : Yes
Forced                                   : No

Text
ID                                       : 1
Format                                   : UTF-8
Codec ID                                 : S_TEXT/UTF8
Codec ID/Info                            : UTF-8 Plain Text
Duration                                 : 2h 6mn
Bit rate                                 : 73 bps
Count of elements                        : 2389
Stream size                              : 67.5 KiB (0%)
Default                                  : Yes
Forced                                   : No

Menu
00:00:00.105                             : en:00:00:00.105


Screen Shots






Credits:TEAM TT


Press Here to Thanks (நன்றி சொல்ல இங்கே அழுத்தவும்) => <=Press Here!


Attached Files
File Type: torrent Enakku Innoru Per Iruku(2016)~720P~WebHdRip~AAC2.1~ESubs~700mb~TTT.torrent (14.0 KB, 84 views), size: 697.62 mb, completed: 20
Name Size

Last edited by myviswaroopam; 07-22-2016 at 08:03 AM.
Reply With Quote
The Following 8 Users Say Thank You to myviswaroopam For This Useful Post:

5 Lastest Threads by myviswaroopam
Thread Forum Last Poster Replies Views Last Post
Enakku Innoru Per... Web/Pre-DVD-Rip sasipushpa 5 1077 07-22-2016 07:49 AM
Enakku Innoru Per... Web/Pre-DVD-Rip pavankumar 4 1103 07-22-2016 06:35 AM
Enakku Innoru Per... Free Leech 3SCRN@TT 4 5497 07-22-2016 05:33 AM

(#2)
Old
kurupam kurupam is offline
|Genius|12,500+
Points: 206,100, Level: 1 Points: 206,100, Level: 1 Points: 206,100, Level: 1
Level up: 99% Level up: 99% Level up: 99%
Activity: 0% Activity: 0% Activity: 0%
Rep Power: 761
kurupam kurupam kurupam kurupam kurupam kurupam kurupam kurupam kurupam kurupam kurupam
 
07-22-2016, 07:55 AM

Thanks for the nice quality 1cd 720p movie share
Reply With Quote
(#3)
Old
TheMagam
Guest
 
07-22-2016, 10:48 AM

Thanks for 1 cdrip of webrip movie Enakku Innoru Per Iruku.
Reply With Quote
(#4)
Old
3SCRN@TT's Avatar
3SCRN@TT 3SCRN@TT is offline
| TTTeam |
Rep Power: 1074
3SCRN@TT 3SCRN@TT 3SCRN@TT 3SCRN@TT 3SCRN@TT 3SCRN@TT 3SCRN@TT 3SCRN@TT 3SCRN@TT 3SCRN@TT 3SCRN@TT
 
07-22-2016, 01:03 PM

Thanks for this nice rip & release!


Reply With Quote
(#5)
Old
tskp tskp is offline
|Beginner|0+
Points: 11, Level: 1 Points: 11, Level: 1 Points: 11, Level: 1
Level up: 99% Level up: 99% Level up: 99%
Activity: 0% Activity: 0% Activity: 0%
Rep Power: 134
tskp
 
07-22-2016, 02:06 PM

thank you
Reply With Quote
(#6)
Old
BAAHUBALI's Avatar
BAAHUBALI BAAHUBALI is offline
| Team Jaffa |
Points: 51,064, Level: 1 Points: 51,064, Level: 1 Points: 51,064, Level: 1
Level up: 99% Level up: 99% Level up: 99%
Activity: 0% Activity: 0% Activity: 0%
Rep Power: 210
BAAHUBALI BAAHUBALI BAAHUBALI BAAHUBALI BAAHUBALI BAAHUBALI BAAHUBALI BAAHUBALI BAAHUBALI BAAHUBALI BAAHUBALI
 
07-22-2016, 02:12 PM

Thanks For The Nice 720P Release Bro......
Reply With Quote
(#7)
Old
sasipushpa sasipushpa is offline
| TT - Releaser |
Points: 180,684, Level: 1 Points: 180,684, Level: 1 Points: 180,684, Level: 1
Level up: 99% Level up: 99% Level up: 99%
Activity: 8% Activity: 8% Activity: 8%
Rep Power: 961
sasipushpa sasipushpa sasipushpa sasipushpa sasipushpa sasipushpa sasipushpa sasipushpa sasipushpa sasipushpa sasipushpa
 
11-15-2016, 12:43 PM

thanks for sharing
Reply With Quote
Reply

Bookmarks

Thread Tools

Posting Rules
You may not post new threads
You may not post replies
You may not post attachments
You may not edit your posts

BB code is On
Smilies are On
[IMG] code is On
HTML code is Off

Forum Jump

BitCoin: 1E5BgHWs1mGCi18fPvnzNYAEGi2jMgrJns



All times are GMT. The time now is 06:17 PM.


Powered by vBulletin® Version 3.8.7
Copyright ©2000 - 2017, vBulletin Solutions, Inc.
TTTeams
2003 - 2011 - TamilTorrent.com - TamilTorrent.net - TamilTorrent.tv - TamilTorrents.com - TamilTorrents.net - TamilTorrents.tv