TAMILTORRENTS  
Invite Your Friends Torrents



TT-Tube | Categories | Best Videos | Best Photos | Most viewed | Most voted

Go Back   TAMILTORRENTS > Tamil Releases > Tamil Rips > Web/Pre-DVD-Rip
Web/Pre-DVD-Rip Section for Tamil Movies ripped from Pre DVD's, DVD'Scr and WebRip.


Reply
 
Thread Tools
(#1)
Old
myviswaroopam's Avatar
myviswaroopam myviswaroopam is offline
| TT - Releaser |
Points: 301,716, Level: 1 Points: 301,716, Level: 1 Points: 301,716, Level: 1
Level up: 99% Level up: 99% Level up: 99%
Activity: 0% Activity: 0% Activity: 0%
Rep Power: 846
myviswaroopam myviswaroopam myviswaroopam myviswaroopam myviswaroopam myviswaroopam myviswaroopam myviswaroopam myviswaroopam myviswaroopam myviswaroopam
 
Smile Enakku Innoru Per Iruku(2016)~1080P~WebHdRip~AAC2.1~ESubs~1gb~TTT - 07-22-2016, 06:35 AM

Enakku Innoru Per Iruku(2016)~1080P~WebHdRip~AAC2.1~ESubs~1gb~TTT


Movie InFo

Code:
Directed by 	Sam Anton
Produced by 	A. Subashkaran
Written by 	Sam Anton
Starring 	G. V. Prakash Kumar
Anandhi
Music by 	G. V. Prakash Kumar
Cinematography 	Krishnan Vasant
Edited by 	Ruben
Production
company
	
Lyca Productions
Release dates
	

    17 June 2016

Running time
	1 hour 57 minutes
Country 	India
Language 	Tamil

Media InFo

Code:

Format                                   : Matroska
Format version                           : Version 4 / Version 2
File size                                : 1.10 GiB
Duration                                 : 2h 9mn
Overall bit rate                         : 1 219 Kbps


Video
ID                                       : 1
Format                                   : AVC
Format/Info                              : Advanced Video Codec
Format profile                           : High@L4
Format settings, CABAC                   : Yes
Format settings, ReFrames                : 4 frames
Codec ID                                 : V_MPEG4/ISO/AVC
Duration                                 : 2h 9mn
Bit rate                                 : 1 105 Kbps
Width                                    : 1 920 pixels
Height                                   : 816 pixels
Display aspect ratio                     : 2.35:1
Frame rate mode                          : Constant
Frame rate                               : 24.000 fps
Color space                              : YUV
Chroma subsampling                       : 4:2:0
Bit depth                                : 8 bits
Scan type                                : Progressive
Bits/(Pixel*Frame)                       : 0.029
Stream size                              : 1 021 MiB (91%)
Writing library                          : x264 core 
Default                                  : Yes
Forced                                   : No

Audio
ID                                       : 3
Format                                   : AAC
Format/Info                              : Advanced Audio Codec
Format profile                           : LC
Codec ID                                 : A_AAC
Duration                                 : 2h 9mn
Bit rate                                 : 112 Kbps
Channel(s)                               : 2 channels
Channel positions                        : Front: L R
Sampling rate                            : 44.1 KHz
Frame rate                               : 43.066 fps (1024 spf)
Compression mode                         : Lossy
Stream size                              : 104 MiB (9%)
Default                                  : Yes
Forced                                   : No

Text
ID                                       : 2
Format                                   : UTF-8
Codec ID                                 : S_TEXT/UTF8
Codec ID/Info                            : UTF-8 Plain Text
Duration                                 : 2h 7mn
Bit rate                                 : 72 bps
Count of elements                        : 2405
Stream size                              : 67.6 KiB (0%)
Default                                  : Yes
Forced                                   : No


Screen Shots







Credits:TEAM TT


Press Here to Thanks (நன்றி சொல்ல இங்கே அழுத்தவும்) => <=Press Here!


Reply With Quote
The Following 18 Users Say Thank You to myviswaroopam For This Useful Post:

5 Lastest Threads by myviswaroopam
Thread Forum Last Poster Replies Views Last Post
Enakku Innoru Per... Web/Pre-DVD-Rip sasipushpa 5 958 07-22-2016 07:49 AM
Enakku Innoru Per... Web/Pre-DVD-Rip pavankumar 4 876 07-22-2016 06:35 AM
Enakku Innoru Per... Free Leech 3SCRN@TT 4 3140 07-22-2016 05:33 AM

(#2)
Old
kurupam kurupam is offline
|Genius|12,500+
Points: 206,093, Level: 1 Points: 206,093, Level: 1 Points: 206,093, Level: 1
Level up: 99% Level up: 99% Level up: 99%
Activity: 100% Activity: 100% Activity: 100%
Rep Power: 759
kurupam kurupam kurupam kurupam kurupam kurupam kurupam kurupam kurupam kurupam kurupam
 
07-22-2016, 06:36 AM

Thanks for the nice quality 1GB WebRip Share
Reply With Quote
(#3)
Old
TheMagam
Guest
 
07-22-2016, 10:42 AM

Thanks for Enakku Innoru Per Iruku in 1080p.
Reply With Quote
(#4)
Old
3SCRN@TT's Avatar
3SCRN@TT 3SCRN@TT is offline
| TTTeam |
Rep Power: 1072
3SCRN@TT 3SCRN@TT 3SCRN@TT 3SCRN@TT 3SCRN@TT 3SCRN@TT 3SCRN@TT 3SCRN@TT 3SCRN@TT 3SCRN@TT 3SCRN@TT
 
07-22-2016, 01:02 PM

Great rip! Thanks!


Reply With Quote
(#5)
Old
BAAHUBALI's Avatar
BAAHUBALI BAAHUBALI is offline
| Team Jaffa |
Points: 51,064, Level: 1 Points: 51,064, Level: 1 Points: 51,064, Level: 1
Level up: 99% Level up: 99% Level up: 99%
Activity: 0% Activity: 0% Activity: 0%
Rep Power: 208
BAAHUBALI BAAHUBALI BAAHUBALI BAAHUBALI BAAHUBALI BAAHUBALI BAAHUBALI BAAHUBALI BAAHUBALI BAAHUBALI BAAHUBALI
 
07-22-2016, 02:15 PM

Thanks For 1080P EIP movie Release
Reply With Quote
(#6)
Old
pavankumar pavankumar is offline
|Beginner|0+
Points: 647, Level: 1 Points: 647, Level: 1 Points: 647, Level: 1
Level up: 99% Level up: 99% Level up: 99%
Activity: 0% Activity: 0% Activity: 0%
Rep Power: 134
pavankumar pavankumar pavankumar pavankumar pavankumar pavankumar
 
11-16-2016, 02:04 AM

thank you very much for awesome share..
Reply With Quote
Reply

Bookmarks

Thread Tools

Posting Rules
You may not post new threads
You may not post replies
You may not post attachments
You may not edit your posts

BB code is On
Smilies are On
[IMG] code is On
HTML code is Off

Forum Jump

BitCoin: 1E5BgHWs1mGCi18fPvnzNYAEGi2jMgrJns



All times are GMT. The time now is 02:57 AM.


Powered by vBulletin® Version 3.8.7
Copyright ©2000 - 2017, vBulletin Solutions, Inc.
TTTeams
2003 - 2011 - TamilTorrent.com - TamilTorrent.net - TamilTorrent.tv - TamilTorrents.com - TamilTorrents.net - TamilTorrents.tv