TAMILTORRENTS  
Invite Your Friends Torrents



TT-Tube | Categories | Best Videos | Best Photos | Most viewed | Most voted

Go Back   TAMILTORRENTS > Tamil Releases > Tamil Rips > Web/Pre-DVD-Rip
Web/Pre-DVD-Rip Section for Tamil Movies ripped from Pre DVD's, DVD'Scr and WebRip.


Reply
 
Thread Tools
(#1)
Old
maddy1392 maddy1392 is offline
|Novice|50+
Points: 6,434, Level: 1 Points: 6,434, Level: 1 Points: 6,434, Level: 1
Level up: 99% Level up: 99% Level up: 99%
Activity: 21% Activity: 21% Activity: 21%
Rep Power: 72
maddy1392 maddy1392 maddy1392 maddy1392 maddy1392 maddy1392 maddy1392 maddy1392 maddy1392 maddy1392 maddy1392
 
Exclamation Enakku Innoru Per Irukku (2016)~480p HD ~ AVC~MP4 ~600MB ~ESubs ~Tamil~TEAM TT - 07-22-2016, 04:52 AM

Enakku Innoru Per Irukku (2016)~480p HD ~ AVC~MP4 ~600MB ~ESubs ~Tamil~TEAM TT



MOVIE INFO

6.3/10 IMDb
Enakku Innoru Per Irukku is a 2016 Tamil Mafia comedy film directed by Sam Anton starring G. V. Prakash Kumar and Anandhi in the leading roles.
Initial release: June 17, 2016
Director: Sam Anton
Music by: G. V. Prakash Kumar

MEDIA INFO

E:\Enakku Innoru Per Irukku (2016)~480p HD ~ AVC~MP4 ~600MB ~ESubs ~Tamil~TEAM TT.mp4
General
Complete name : E:\Enakku Innoru Per Irukku (2016)~480p HD ~ AVC~MP4 ~600MB ~ESubs ~Tamil~TEAM TT.mp4
Format : MPEG-4
Format profile : Base Media
Codec ID : isom
File size : 614 MiB
Duration : 2h 9mn
Overall bit rate : 664 Kbps
Writing application : Lavf57.25.100
Video #1
ID : 1
Format : AVC
Format/Info : Advanced Video Codec
Format profile : Main@L3
Format settings, CABAC : Yes
Format settings, ReFrames : 4 frames
Codec ID : avc1
Codec ID/Info : Advanced Video Coding
Duration : 2h 9mn
Bit rate : 546 Kbps
Width : 720 pixels
Height : 406 pixels
Display aspect ratio : 16:9
Frame rate mode : Constant
Frame rate : 24.000 fps
Color space : YUV
Chroma subsampling : 4:2:0
Bit depth : 8 bits
Scan type : Progressive
Bits/(Pixel*Frame) : 0.078
Stream size : 505 MiB (82%)
Writing library : x264 core 148
Encoding settings : cabac=1 / ref=3 / deblock=1:0:0 / analyse=0x1:0x111 / me=hex / subme=7 / psy=1 / psy_rd=1.00:0.00 / mixed_ref=1 / me_range=16 / chroma_me=1 / trellis=1 / 8x8dct=0 / cqm=0 / deadzone=21,11 / fast_pskip=1 / chroma_qp_offset=-2 / threads=16 / lookahead_threads=2 / sliced_threads=0 / nr=0 / decimate=1 / interlaced=0 / bluray_compat=0 / constrained_intra=0 / bframes=3 / b_pyramid=2 / b_adapt=1 / b_bias=0 / direct=1 / weightb=1 / open_gop=0 / weightp=2 / keyint=96 / keyint_min=9 / scenecut=0 / intra_refresh=0 / rc_lookahead=40 / rc=crf / mbtree=1 / crf=23.0 / qcomp=0.60 / qpmin=0 / qpmax=69 / qpstep=4 / vbv_maxrate=1037 / vbv_bufsize=1037 / crf_max=0.0 / nal_hrd=none / filler=0 / ip_ratio=1.40 / aq=1:1.00
Language : English
Audio #2
ID : 2
Format : AAC
Format/Info : Advanced Audio Codec
Format profile : LC
Codec ID : 40
Duration : 2h 9mn
Bit rate mode : Constant
Bit rate : 112 Kbps
Channel(s) : 2 channels
Channel positions : Front: L R
Sampling rate : 44.1 KHz
Compression mode : Lossy
Stream size : 104 MiB (17%)
Language : English

SCREEN SHOTS








Press Here to Thanks (நன்றி சொல்ல இங்கே அழுத்தவும்) => <=Press Here!


Attached Files
File Type: torrent Enakku Innoru Per Irukku (2016)~480p HD ~ AVC~MP4 ~600MB ~ESubs ~Tamil~TEAM TT.mp4.torrent (12.3 KB, 46 views), size: 613.84 mb, completed: 13
Name Size
Reply With Quote
The Following 8 Users Say Thank You to maddy1392 For This Useful Post:

5 Lastest Threads by maddy1392
Thread Forum Last Poster Replies Views Last Post
Enakku Innoru Per Irukku (2016)~480p HD ~ AVC~MP4... Web/Pre-DVD-Rip 3SCRN@TT 6 776 07-22-2016 04:52 AM
Ka Ka Ka Po (2016)[HDRip - x264 - 400MB -... Web/Pre-DVD-Rip tsai_babu 6 551 07-20-2016 11:34 AM
Amma Kanakku (2016)[HDRip - x264 - 400MB -... Web/Pre-DVD-Rip 3SCRN@TT 6 428 07-19-2016 05:53 PM

(#2)
Old
TheMagam
Guest
 
07-22-2016, 04:59 AM

Thanks for new movie Enakku Innoru Per Irukku.
keep it up.
Reply With Quote
(#3)
Old
kurupam kurupam is offline
|Genius|12,500+
Points: 206,093, Level: 1 Points: 206,093, Level: 1 Points: 206,093, Level: 1
Level up: 99% Level up: 99% Level up: 99%
Activity: 100% Activity: 100% Activity: 100%
Rep Power: 759
kurupam kurupam kurupam kurupam kurupam kurupam kurupam kurupam kurupam kurupam kurupam
 
07-22-2016, 05:09 AM

Expected this release from you....Thanks for the share

To improve your leechers , make minimum 9 screens for each release
All screens shall be taken properly..Not the long screens. Try capturing some quality images from the rip
Reply With Quote
(#4)
Old
maddy1392 maddy1392 is offline
|Novice|50+
Points: 6,434, Level: 1 Points: 6,434, Level: 1 Points: 6,434, Level: 1
Level up: 99% Level up: 99% Level up: 99%
Activity: 21% Activity: 21% Activity: 21%
Rep Power: 72
maddy1392 maddy1392 maddy1392 maddy1392 maddy1392 maddy1392 maddy1392 maddy1392 maddy1392 maddy1392 maddy1392
 
07-22-2016, 05:16 AM

Quote:
Originally Posted by kurupam View Post
expected this release from you....thanks for the share

to improve your leechers , make minimum 9 screens for each release
all screens shall be taken properly..not the long screens. Try capturing some quality images from the rip
ll do this from my next release bro! Thanks for ur support for my every release
Reply With Quote
(#5)
Old
anishdon anishdon is offline
|Authority|250+
Points: 35,798, Level: 1 Points: 35,798, Level: 1 Points: 35,798, Level: 1
Level up: 99% Level up: 99% Level up: 99%
Activity: 0% Activity: 0% Activity: 0%
Rep Power: 0
anishdon anishdon anishdon anishdon anishdon anishdon anishdon anishdon anishdon anishdon anishdon
 
07-22-2016, 06:51 AM

Thanks for the release
Reply With Quote
(#6)
Old
indra12k
Guest
 
07-22-2016, 09:15 AM

Good and clean
Reply With Quote
(#7)
Old
3SCRN@TT's Avatar
3SCRN@TT 3SCRN@TT is offline
| TTTeam |
Rep Power: 1072
3SCRN@TT 3SCRN@TT 3SCRN@TT 3SCRN@TT 3SCRN@TT 3SCRN@TT 3SCRN@TT 3SCRN@TT 3SCRN@TT 3SCRN@TT 3SCRN@TT
 
07-22-2016, 01:01 PM

Good share! Thank you! keep improving!


Reply With Quote
Reply

Bookmarks

Thread Tools

Posting Rules
You may not post new threads
You may not post replies
You may not post attachments
You may not edit your posts

BB code is On
Smilies are On
[IMG] code is On
HTML code is Off

Forum Jump

BitCoin: 1E5BgHWs1mGCi18fPvnzNYAEGi2jMgrJns



All times are GMT. The time now is 02:56 AM.


Powered by vBulletin® Version 3.8.7
Copyright ©2000 - 2017, vBulletin Solutions, Inc.
TTTeams
2003 - 2011 - TamilTorrent.com - TamilTorrent.net - TamilTorrent.tv - TamilTorrents.com - TamilTorrents.net - TamilTorrents.tv