TAMILTORRENTS  
Invite Your Friends Torrents



TT-Tube | Categories | Best Videos | Best Photos | Most viewed | Most voted

Go Back   TAMILTORRENTS > Malayalam > Malayalam DVD-Rip
Malayalam DVD-Rip Section for Malayalam Movies Ripped from Original DVD.


Reply
 
Thread Tools
(#1)
Old
myviswaroopam's Avatar
myviswaroopam myviswaroopam is offline
| TT - Releaser |
Points: 301,728, Level: 1 Points: 301,728, Level: 1 Points: 301,728, Level: 1
Level up: 99% Level up: 99% Level up: 99%
Activity: 0% Activity: 0% Activity: 0%
Rep Power: 848
myviswaroopam myviswaroopam myviswaroopam myviswaroopam myviswaroopam myviswaroopam myviswaroopam myviswaroopam myviswaroopam myviswaroopam myviswaroopam
 
Smile James And Alice(2016)~DvdRip~x264~ESubs~Chaps~700mb~TTT - 07-21-2016, 06:30 AM

James And Alice(2016)~DvdRip~x264~ESubs~Chaps~700mb~TTT


Movie InFo

Code:
Directed by 	Sujith Vaassudev
Produced by 	Dr S Saji Kumar Krishnan Sethukumar
Written by 	Dr S.Janardhanan
Story by 	Sujith Vasudev
Starring 	Prithviraj Sukumaran
Vedhika
Music by 	Gopi Sunder
Cinematography 	Sujith Vaassudev
Edited by 	Samjith Mhd
Production
company
	
Dharmik Films
Distributed by 	Srivari Films
Release dates
	5 May 2016
Country 	India
Language 	Malayalam
Media InFo

Code:


Format                                   : Matroska
Format version                           : Version 4 / Version 2
File size                                : 716 MiB
Duration                                 : 2h 46mn
Overall bit rate                         : 603 Kbps


Video
ID                                       : 1
Format                                   : AVC
Format/Info                              : Advanced Video Codec
Format profile                           : High@L2.1
Format settings, CABAC                   : Yes
Format settings, ReFrames                : 4 frames
Codec ID                                 : V_MPEG4/ISO/AVC
Duration                                 : 2h 46mn
Bit rate                                 : 531 Kbps
Width                                    : 640 pixels
Height                                   : 264 pixels
Display aspect ratio                     : 2.40:1
Frame rate mode                          : Constant
Frame rate                               : 23.976 (24000/1001) fps
Color space                              : YUV
Chroma subsampling                       : 4:2:0
Bit depth                                : 8 bits
Scan type                                : Progressive
Bits/(Pixel*Frame)                       : 0.131
Stream size                              : 631 MiB (88%)
Writing library                          : x264 core  
Default                                  : Yes
Forced                                   : No

Audio
ID                                       : 2
Format                                   : AAC
Format/Info                              : Advanced Audio Codec
Format profile                           : HE-AAC / LC
Codec ID                                 : A_AAC
Duration                                 : 2h 46mn
Bit rate                                 : 70.0 Kbps
Channel(s)                               : 2 channels
Channel positions                        : Front: L R
Sampling rate                            : 48.0 KHz / 24.0 KHz
Frame rate                               : 23.438 fps (1024 spf)
Compression mode                         : Lossy
Delay relative to video                  : 31ms
Stream size                              : 83.1 MiB (12%)
Default                                  : Yes
Forced                                   : No

Text
ID                                       : 3
Format                                   : UTF-8
Codec ID                                 : S_TEXT/UTF8
Codec ID/Info                            : UTF-8 Plain Text
Duration                                 : 2h 41mn
Bit rate                                 : 42 bps
Count of elements                        : 1387
Stream size                              : 50.7 KiB (0%)
Language                                 : English
Default                                  : No
Forced                                   : No


Menu #2
00:00:00.000                             : en:Chapter 01
00:02:13.133                             : en:Chapter 02
00:13:57.369                             : en:Chapter 03
00:23:03.203                             : en:Chapter 04
00:28:44.837                             : en:Chapter 05
00:33:06.838                             : en:Chapter 06
00:40:47.139                             : en:Chapter 07
00:47:06.107                             : en:Chapter 08
00:58:04.008                             : en:Chapter 09
01:08:48.442                             : en:Chapter 10
01:14:24.744                             : en:Chapter 11
01:21:41.281                             : en:Chapter 12
01:30:13.082                             : en:Chapter 13
01:36:12.916                             : en:Chapter 14
01:46:01.850                             : en:Chapter 15
01:56:55.418                             : en:Chapter 16
02:07:56.285                             : en:Chapter 17
02:16:18.754                             : en:Chapter 18
02:17:49.688                             : en:Chapter 19
02:27:58.757                             : en:Chapter 20
02:31:29.958                             : en:Chapter 21
02:37:53.525                             : en:Chapter 22
Screen Shots






Credits:TEAM TT


Press Here to Thanks (நன்றி சொல்ல இங்கே அழுத்தவும்) => <=Press Here!


Attached Files
File Type: torrent James And Alice(2016)~DvdRip~x264~ESubs~Chaps~700mb~TTT.torrent (14.3 KB, 127 views), size: 715.99 mb, completed: 80
Name Size
Reply With Quote
The Following 18 Users Say Thank You to myviswaroopam For This Useful Post:

5 Lastest Threads by myviswaroopam
Thread Forum Last Poster Replies Views Last Post
Enakku Innoru Per... Web/Pre-DVD-Rip sasipushpa 5 1077 07-22-2016 07:49 AM
Enakku Innoru Per... Web/Pre-DVD-Rip pavankumar 4 1103 07-22-2016 06:35 AM
Enakku Innoru Per... Free Leech 3SCRN@TT 4 5497 07-22-2016 05:33 AM

(#2)
Old
maddy1392 maddy1392 is offline
|Novice|50+
Points: 6,434, Level: 1 Points: 6,434, Level: 1 Points: 6,434, Level: 1
Level up: 99% Level up: 99% Level up: 99%
Activity: 21% Activity: 21% Activity: 21%
Rep Power: 75
maddy1392 maddy1392 maddy1392 maddy1392 maddy1392 maddy1392 maddy1392 maddy1392 maddy1392 maddy1392 maddy1392
 
07-21-2016, 06:44 AM

thanks for the one rip 700mb rip bro! keep rocking
Reply With Quote
(#3)
Old
kurupam kurupam is offline
|Genius|12,500+
Points: 206,100, Level: 1 Points: 206,100, Level: 1 Points: 206,100, Level: 1
Level up: 99% Level up: 99% Level up: 99%
Activity: 0% Activity: 0% Activity: 0%
Rep Power: 761
kurupam kurupam kurupam kurupam kurupam kurupam kurupam kurupam kurupam kurupam kurupam
 
07-21-2016, 06:49 AM

Thanks for the James And Alice DVDRip Share
Reply With Quote
(#4)
Old
Mallu Maaman's Avatar
Mallu Maaman Mallu Maaman is offline
|Brain|1500+
Points: 73,160, Level: 1 Points: 73,160, Level: 1 Points: 73,160, Level: 1
Level up: 99% Level up: 99% Level up: 99%
Activity: 1% Activity: 1% Activity: 1%
Rep Power: 416
Mallu Maaman Mallu Maaman Mallu Maaman Mallu Maaman Mallu Maaman Mallu Maaman Mallu Maaman Mallu Maaman Mallu Maaman Mallu Maaman Mallu Maaman
 
07-21-2016, 07:52 AM

thanks for the movie...
Reply With Quote
(#5)
Old
TheMagam
Guest
 
07-21-2016, 08:23 AM

Thanks for 1 cdrip of James And Alice.
keep it up.
Reply With Quote
(#6)
Old
ksmsd
Guest
 
07-21-2016, 09:52 AM

Thanks for the Malayalam movie in DVD Rip, myviswaroopam
Reply With Quote
(#7)
Old
chikkus5088's Avatar
chikkus5088 chikkus5088 is offline
|Authority|250+
Points: 18,893, Level: 1 Points: 18,893, Level: 1 Points: 18,893, Level: 1
Level up: 99% Level up: 99% Level up: 99%
Activity: 7% Activity: 7% Activity: 7%
Rep Power: 148
chikkus5088 chikkus5088 chikkus5088 chikkus5088 chikkus5088 chikkus5088 chikkus5088 chikkus5088 chikkus5088 chikkus5088 chikkus5088
 
07-21-2016, 02:20 PM

thankz for the share...
Reply With Quote
(#8)
Old
3SCRN@TT's Avatar
3SCRN@TT 3SCRN@TT is offline
| TTTeam |
Rep Power: 1074
3SCRN@TT 3SCRN@TT 3SCRN@TT 3SCRN@TT 3SCRN@TT 3SCRN@TT 3SCRN@TT 3SCRN@TT 3SCRN@TT 3SCRN@TT 3SCRN@TT
 
07-21-2016, 05:00 PM

You are as usual! Thanks!


Reply With Quote
(#9)
Old
georgie's Avatar
georgie georgie is offline
|Expert|500+
Points: 10,849, Level: 1 Points: 10,849, Level: 1 Points: 10,849, Level: 1
Level up: 99% Level up: 99% Level up: 99%
Activity: 0% Activity: 0% Activity: 0%
Rep Power: 204
georgie georgie georgie georgie georgie georgie georgie georgie georgie georgie georgie
 
07-22-2016, 02:27 AM

thanx man.......


Reply With Quote
Reply

Bookmarks

Thread Tools

Posting Rules
You may not post new threads
You may not post replies
You may not post attachments
You may not edit your posts

BB code is On
Smilies are On
[IMG] code is On
HTML code is Off

Forum Jump

BitCoin: 1E5BgHWs1mGCi18fPvnzNYAEGi2jMgrJns



All times are GMT. The time now is 06:13 PM.


Powered by vBulletin® Version 3.8.7
Copyright ©2000 - 2017, vBulletin Solutions, Inc.
TTTeams
2003 - 2011 - TamilTorrent.com - TamilTorrent.net - TamilTorrent.tv - TamilTorrents.com - TamilTorrents.net - TamilTorrents.tv