TAMILTORRENTS  
Invite Your Friends Torrents



TT-Tube | Categories | Best Videos | Best Photos | Most viewed | Most voted

Go Back   TAMILTORRENTS > Tamil Releases > Misc releases > Music Video > VIDEO DVD-Rip
VIDEO DVD-Rip Section of Tamil Music Videos Rip's from Original DVD's, Pre-DVD's, DVD'Scr, R5's.


Closed Thread
 
LinkBack Thread Tools
(#1 (permalink))
Old
esakkiappan05's Avatar
|Expert|500+
Points: 21,739, Level: 1 Points: 21,739, Level: 1 Points: 21,739, Level: 1
Level up: 99% Level up: 99% Level up: 99%
Activity: 1% Activity: 1% Activity: 1%
Rep Power: 132
esakkiappan05 esakkiappan05 esakkiappan05 esakkiappan05 esakkiappan05 esakkiappan05 esakkiappan05 esakkiappan05 esakkiappan05 esakkiappan05 esakkiappan05
 
5 tamil full movie video songs vob 5.1 sorround - 11-22-2011, 09:32 AM

5 tamil full movie video songs vob 5.1 sorround1.gilli
2.april mathathil
3.vanthan vendren
4.vedi
5.shajahan


General
Complete name : C:\5 tamil full movie video songs vob 5.1 sorround\april mathathil\ey nenja.VOB
Format : MPEG-PS
File size : 206 MiB
Duration : 4mn 21s
Overall bit rate : 6 613 Kbps

Video
ID : 224 (0xE0)
Format : MPEG Video
Format version : Version 2
Format profile : Main@Main
Format settings, BVOP : Yes
Format settings, Matrix : Default
Format settings, GOP : M=3, N=15
Duration : 4mn 21s
Bit rate mode : Variable
Bit rate : 5 278 Kbps
Nominal bit rate : 6 000 Kbps
Width : 720 pixels
Height : 480 pixels
Display aspect ratio : 16:9
Frame rate : 29.970 fps
Standard : NTSC
Color space : YUV
Chroma subsampling : 4:2:0
Bit depth : 8 bits
Scan type : Interlaced
Scan order : Top Field First
Compression mode : Lossy
Bits/(Pixel*Frame) : 0.510
Stream size : 165 MiB (80%)

Audio #1
ID : 189 (0xBD)-128 (0x80)
Format : AC-3
Format/Info : Audio Coding 3
Mode extension : CM (complete main)
Muxing mode : DVD-Video
Duration : 4mn 21s
Bit rate mode : Constant
Bit rate : 448 Kbps
Channel(s) : 6 channels
Channel positions : Front: L C R, Side: L R, LFE
Sampling rate : 48.0 KHz
Bit depth : 16 bits
Compression mode : Lossy
Delay relative to video : -220ms
Stream size : 14.0 MiB (7%)

Audio #2
ID : 189 (0xBD)-137 (0x89)
Format : DTS
Format/Info : Digital Theater Systems
Muxing mode : DVD-Video
Duration : 4mn 21s
Bit rate mode : Constant
Bit rate : 755 Kbps
Channel(s) : 6 channels
Channel positions : Front: L C R, Side: L R, LFE
Sampling rate : 48.0 KHz
Bit depth : 16 bits
Compression mode : Lossy
Delay relative to video : -251ms
Stream size : 23.5 MiB (11%)

Menu






Press Here to Thanks (நன்றி சொல்ல இங்கே அழுத்தவும்) => <=Press Here!


Attached Files <div style="background-color: none transparent;"><a onclick="_gaq.push(['_trackEvent', 'Outgoing', 'news.rsspump.com', '/']);" href="http://news.rsspump.com/" title="rsspump">news</a></div>
File Type: torrent 5 tamil full movie video songs vob 5.1 sorround.torrent (15.7 KB, 94 views), size: 2.86 gb, completed: 18
Name Size


The Following 12 Users Say Thank You to esakkiappan05 For This Useful Post:

5 Lastest Threads by esakkiappan05
Thread Forum Last Poster Replies Views Last Post
Indian DVD9 Untouched VOB Video Songs With DTS &... VIDEO DVD-Rip jhonnyadelaide 8 1131 04-12-2013 11:54 AM

(#2 (permalink))
Old
|Contributor|100+
Points: 3,383, Level: 1 Points: 3,383, Level: 1 Points: 3,383, Level: 1
Level up: 99% Level up: 99% Level up: 99%
Activity: 1% Activity: 1% Activity: 1%
Rep Power: 62
mrmallaiyan mrmallaiyan mrmallaiyan mrmallaiyan mrmallaiyan mrmallaiyan mrmallaiyan mrmallaiyan mrmallaiyan mrmallaiyan mrmallaiyan
 
11-24-2011, 11:01 AM

nice movie collections
thx good share
Closed Thread

Bookmarks

Tags
tamil, tamilvideosongs, videosongs

Thread Tools

Posting Rules
You may not post new threads
You may not post replies
You may not post attachments
You may not edit your posts

BB code is On
Smilies are On
[IMG] code is On
HTML code is Off
Trackbacks are On
Pingbacks are On
Refbacks are On


Similar Threads
Thread Thread Starter Forum Replies Last Post
Tamil full video songs 9 movie collections 5.1 surround esakkiappan05 VIDEO DVD-Rip 2 09-22-2011 12:54 AM
Veppam (2011) ~ Tamil Movie TV Ripped Video Songs ~ TTT King ttt king VCD/TV-RIP 2 05-31-2011 11:06 AM
Speed[the Bash]remix By Harry(2008)-hs Creation kanthansiva VCD/TV-RIP 5 11-24-2008 02:54 AM
Seval (2008) - (320kbps,128kbp VBR)-First On Net kanthansiva Old Albums 14 10-05-2008 05:25 AM
Yean Indha Mounam?(2008) [ORI-AYNGARAN-CD-RIP][320kbps] First On Net kanthansiva Old Albums 4 10-04-2008 04:21 PM

BitCoin: 1E5BgHWs1mGCi18fPvnzNYAEGi2jMgrJns



All times are GMT. The time now is 06:36 PM.


Powered by vBulletin® Version 3.8.7
Copyright ©2000 - 2014, vBulletin Solutions, Inc.
Search Engine Friendly URLs by vBSEO ©2011, Crawlability, Inc.
TTTeams
2003 - 2011 - TamilTorrent.com - TamilTorrent.net - TamilTorrent.tv - TamilTorrents.com - TamilTorrents.net - TamilTorrents.tv