TAMILTORRENTS  
Invite Your Friends Torrents



TT-Tube | Categories | Best Videos | Best Photos | Most viewed | Most voted

Go Back   TAMILTORRENTS > Tamil Releases > Tamil Rips > Web/Pre-DVD-Rip
Web/Pre-DVD-Rip Section for Tamil Movies ripped from Pre DVD's, DVD'Scr and WebRip.


Reply
 
LinkBack Thread Tools
(#1 (permalink))
Old
shammu's Avatar
| Individual Releaser |
Points: 153,726, Level: 1 Points: 153,726, Level: 1 Points: 153,726, Level: 1
Level up: 99% Level up: 99% Level up: 99%
Activity: 55% Activity: 55% Activity: 55%
Rep Power: 636
shammu shammu shammu shammu shammu shammu shammu shammu shammu shammu shammu
 
Thumbs up Amma Kanakku (2016) PDVD Rip x264 AAC 700MB - Shammu - 07-21-2016, 05:50 PM

Amma Kanakku (2016) PDVD Rip x264 AAC 700MB - Shammu

Code:
Format                      : MPEG-4
Format profile              : Base Media
Codec ID                    : isom (isom)
File size                   : 701 MiB
Duration                    : 1 h 47 min
Overall bit rate mode       : Variable
Overall bit rate            : 909 kb/s
Encoded date                : UTC 2016-07-21 15:34:33
Tagged date                 : UTC 2016-07-21 15:34:33

Video
ID                          : 1
Format                      : AVC
Format/Info                 : Advanced Video Codec
Format profile              : High@L2.1
Format settings, CABAC      : Yes
Format settings, ReFrames   : 4 frames
Codec ID                    : avc1
Codec ID/Info               : Advanced Video Coding
Duration                    : 1 h 47 min
Bit rate                    : 807 kb/s
Maximum bit rate            : 4 252 kb/s
Width                       : 608 pixels
Height                      : 256 pixels
Display aspect ratio        : 2.40:1
Frame rate mode             : Constant
Frame rate                  : 29.970 (30000/1001) FPS
Color space                 : YUV
Chroma subsampling          : 4:2:0
Bit depth                   : 8 bits
Scan type                   : Progressive
Bits/(Pixel*Frame)          : 0.173
Stream size                 : 622 MiB (89%)
Writing library             : x264 core 148 r2638 7599210
Encoding settings           : cabac=1 / ref=3 / deblock=1:0:0 / analyse=0x3:0x113 / me=hex / subme=7 / psy=1 / psy_rd=1.00:0.00 / mixed_ref=1 / me_range=16 / chroma_me=1 / trellis=1 / 8x8dct=1 / cqm=0 / deadzone=21,11 / fast_pskip=1 / chroma_qp_offset=-2 / threads=8 / lookahead_threads=1 / sliced_threads=0 / nr=0 / decimate=1 / interlaced=0 / bluray_compat=0 / constrained_intra=0 / bframes=3 / b_pyramid=2 / b_adapt=1 / b_bias=0 / direct=1 / weightb=1 / open_gop=0 / weightp=2 / keyint=300 / keyint_min=29 / scenecut=40 / intra_refresh=0 / rc_lookahead=40 / rc=2pass / mbtree=1 / bitrate=807 / ratetol=1.0 / qcomp=0.60 / qpmin=0 / qpmax=69 / qpstep=4 / cplxblur=20.0 / qblur=0.5 / ip_ratio=1.40 / aq=1:1.00
Encoded date                : UTC 2016-07-20 17:16:54
Tagged date                 : UTC 2016-07-21 15:34:45

Audio
ID                          : 2
Format                      : AAC
Format/Info                 : Advanced Audio Codec
Format profile              : LC
Codec ID                    : 40
Duration                    : 1 h 47 min
Bit rate mode               : Variable
Bit rate                    : 96.0 kb/s
Maximum bit rate            : 144 kb/s
Channel(s)                  : 2 channels
Channel positions           : Front: L R
Sampling rate               : 48.0 kHz
Frame rate                  : 46.875 FPS (1024 spf)
Compression mode            : Lossy
Stream size                 : 75.5 MiB (11%)
Encoded date                : UTC 2016-07-21 15:30:50
Tagged date                 : UTC 2016-07-21 15:34:45






Press Here to Thanks (நன்றி சொல்ல இங்கே அழுத்தவும்) => <=Press Here!


Attached Files
File Type: torrent Amma Kanakku (2016) PDVD Rip x264 AAC 700MB - Shammu.torrent (27.6 KB, 39 views), size: 700.61 mb, completed: 20
Name Size


Reply With Quote
The Following 6 Users Say Thank You to shammu For This Useful Post:

5 Lastest Threads by shammu
Thread Forum Last Poster Replies Views Last Post
Amma Kanakku (2016) PDVD Rip x264 AAC 700MB -... Web/Pre-DVD-Rip anishdon 5 417 07-21-2016 05:50 PM
Leele (2016) DVD Rip x264 AAC 700MB - Shammu Malayalam DVD-Rip 3SCRN@TT 3 345 07-07-2016 11:06 AM
Urumeen (2015) Cust DVD NTSC DD - Shammu Pre-DVD-R usher 5 392 07-02-2016 05:36 PM
Vairamuthuvin Tamil Mutthugal... Collections & BGM gael 5 217 07-01-2016 06:58 PM

(#2 (permalink))
Old
|Genius|12,500+
Points: 206,091, Level: 1 Points: 206,091, Level: 1 Points: 206,091, Level: 1
Level up: 99% Level up: 99% Level up: 99%
Activity: 100% Activity: 100% Activity: 100%
Rep Power: 754
kurupam kurupam kurupam kurupam kurupam kurupam kurupam kurupam kurupam kurupam kurupam
 
07-21-2016, 05:55 PM

Thanks for the Amma Kanakku 1CD DVDRip Share
Reply With Quote
(#3 (permalink))
Old
3SCRN@TT's Avatar
| TTTeam |
Rep Power: 1067
3SCRN@TT 3SCRN@TT 3SCRN@TT 3SCRN@TT 3SCRN@TT 3SCRN@TT 3SCRN@TT 3SCRN@TT 3SCRN@TT 3SCRN@TT 3SCRN@TT
 
Talking 07-21-2016, 06:07 PM

Erkanavey pathachu, ethachu puthusa paddam edukka solunga! Thanks!


Reply With Quote
(#4 (permalink))
Old
|Expert|500+
Points: 28,329, Level: 1 Points: 28,329, Level: 1 Points: 28,329, Level: 1
Level up: 99% Level up: 99% Level up: 99%
Activity: 6% Activity: 6% Activity: 6%
Rep Power: 185
chelli chelli chelli chelli chelli chelli chelli chelli chelli chelli chelli
 
ms - 07-21-2016, 11:36 PM

very good movie
Reply With Quote
(#5 (permalink))
Old
TheMagam
Guest
 
07-22-2016, 12:52 AM

Thanks for Amala Paul movie Amma Kanakku in 1 cd.
Reply With Quote
(#6 (permalink))
Old
|Authority|250+
Points: 35,792, Level: 1 Points: 35,792, Level: 1 Points: 35,792, Level: 1
Level up: 99% Level up: 99% Level up: 99%
Activity: 100% Activity: 100% Activity: 100%
Rep Power: 0
anishdon anishdon anishdon anishdon anishdon anishdon anishdon anishdon anishdon anishdon anishdon
 
07-22-2016, 08:04 AM

Thanks for the PreDVDRip
Reply With Quote
Reply

Bookmarks

Thread Tools

Posting Rules
You may not post new threads
You may not post replies
You may not post attachments
You may not edit your posts

BB code is On
Smilies are On
[IMG] code is On
HTML code is Off
Trackbacks are On
Pingbacks are On
Refbacks are On


BitCoin: 1E5BgHWs1mGCi18fPvnzNYAEGi2jMgrJns



All times are GMT. The time now is 02:11 AM.


Powered by vBulletin® Version 3.8.7
Copyright ©2000 - 2017, vBulletin Solutions, Inc.
Search Engine Friendly URLs by vBSEO ©2011, Crawlability, Inc.
TTTeams
2003 - 2011 - TamilTorrent.com - TamilTorrent.net - TamilTorrent.tv - TamilTorrents.com - TamilTorrents.net - TamilTorrents.tv