TAMILTORRENTS  
Invite Your Friends Torrents



TT-Tube | Categories | Best Videos | Best Photos | Most viewed | Most voted

Go Back   TAMILTORRENTS > Tamil Releases > Tamil Rips > Upscaled
Upscaled Section for Tamil movies upscaled from Original DVD-5/9.


Reply
 
LinkBack Thread Tools
(#1 (permalink))
Old
myviswaroopam's Avatar
| TT - Releaser |
Points: 301,685, Level: 1 Points: 301,685, Level: 1 Points: 301,685, Level: 1
Level up: 99% Level up: 99% Level up: 99%
Activity: 92% Activity: 92% Activity: 92%
Rep Power: 842
myviswaroopam myviswaroopam myviswaroopam myviswaroopam myviswaroopam myviswaroopam myviswaroopam myviswaroopam myviswaroopam myviswaroopam myviswaroopam
 
Smile Theri(2016)~720p~X264~AP DvdRip~ESubs~Chaps~DTS&UTAC35.1~1.7gb&1.4gb~TTT - 06-11-2016, 07:59 AM

Theri(2016)~720p~X264~AP DvdRip~ESubs~Chaps~DTS&UTAC35.1~1.7gb&1.4gb~TTT


Movie InFo

Code:
Directed by 	Atlee
Produced by 	Kalaipuli S. Thanu
Written by 	Atlee
S. Ramana Girivasan
Starring 	Vijay
Samantha
Amy Jackson
Music by 	G. V. Prakash Kumar
Cinematography 	George C. Williams
Edited by 	Anthony L. Ruben
Production
company
	
V. Creations
Distributed by 	SPI Cinemas (Chennai)[1]

    Friday Film House (Kerala)[2]
    Carnival Motion Pictures (Kerala)[2]

Release dates
	

    14 April 2016

[3]
Running time
	158 Minutes
Country 	India
Language 	Tamil
Media InFo

Code:

UNTOUCHED DTS VERSION@1.7GB:
Format : Matroska Format version : Version 4 / Version 2 File size : 1.79 GiB Duration : 2h 30mn Overall bit rate : 1 706 Kbps ID : 3 Format : AVC Format/Info : Advanced Video Codec Format profile : High@L3.1 Format settings, CABAC : Yes Format settings, ReFrames : 4 frames Codec ID : V_MPEG4/ISO/AVC Duration : 2h 30mn Bit rate : 949 Kbps Width : 1 280 pixels Height : 544 pixels Display aspect ratio : 2.35:1 Frame rate mode : Constant Frame rate : 25.000 fps Color space : YUV Chroma subsampling : 4:2:0 Bit depth : 8 bits Scan type : Progressive Bits/(Pixel*Frame) : 0.055 Stream size : 1 019 MiB (56%) Writing library : x264 Default : Yes Forced : No Audio ID : 1 Format : DTS Format/Info : Digital Theater Systems Mode : 16 Format settings, Endianness : Big Codec ID : A_DTS Duration : 2h 30mn Bit rate mode : Constant Bit rate : 755 Kbps Channel(s) : 6 channels Channel positions : Front: L C R, Side: L R, LFE Sampling rate : 48.0 KHz Frame rate : 93.750 fps (512 spf) Bit depth : 24 bits Compression mode : Lossy Stream size : 811 MiB (44%) Default : Yes Forced : No Text ID : 2 Format : UTF-8 Codec ID : S_TEXT/UTF8 Codec ID/Info : UTF-8 Plain Text Duration : 2h 28mn Bit rate : 65 bps Count of elements : 2370 Stream size : 71.5 KiB (0%) Default : Yes Forced : No Menu 00:00:00.000 : en:Chapter 01 00:01:29.280 : en:Chapter 02 00:03:20.640 : en:Chapter 03 00:05:54.720 : en:Chapter 04 00:07:07.200 : en:Chapter 05 00:09:48.960 : en:Chapter 06 00:11:02.880 : en:Chapter 07 00:30:52.320 : en:Chapter 08 00:35:00.480 : en:Chapter 09 00:43:12.000 : en:Chapter 10 00:59:55.200 : en:Chapter 11 01:04:20.160 : en:Chapter 12 01:22:46.560 : en:Chapter 13 01:33:19.200 : en:Chapter 14 01:37:40.320 : en:Chapter 15 01:57:28.320 : en:Chapter 16 02:13:53.760 : en:Chapter 17 02:27:17.760 : en:Chapter 18
FOR UNTOUCHED DD5.1@1.4GB
Format : Matroska Format version : Version 4 / Version 2 File size : 1.47 GiB Duration : 2h 30mn Overall bit rate : 1 399 Kbps Video ID : 3 Format : AVC Format/Info : Advanced Video Codec Format profile : High@L3.1 Format settings, CABAC : Yes Format settings, ReFrames : 4 frames Codec ID : V_MPEG4/ISO/AVC Duration : 2h 30mn Bit rate : 949 Kbps Width : 1 280 pixels Height : 544 pixels Display aspect ratio : 2.35:1 Frame rate mode : Constant Frame rate : 25.000 fps Color space : YUV Chroma subsampling : 4:2:0 Bit depth : 8 bits Scan type : Progressive Bits/(Pixel*Frame) : 0.055 Stream size : 1 019 MiB (68%) Writing library : x264 core Default : Yes Forced : No Audio ID : 2 Format : AC-3 Format/Info : Audio Coding 3 Mode extension : CM (complete main) Format settings, Endianness : Big Codec ID : A_AC3 Duration : 2h 30mn Bit rate mode : Constant Bit rate : 448 Kbps Channel(s) : 6 channels Channel positions : Front: L C R, Side: L R, LFE Sampling rate : 48.0 KHz Frame rate : 31.250 fps (1536 spf) Compression mode : Lossy Stream size : 481 MiB (32%) Default : Yes Forced : No Text ID : 1 Format : UTF-8 Codec ID : S_TEXT/UTF8 Codec ID/Info : UTF-8 Plain Text Duration : 2h 28mn Bit rate : 65 bps Count of elements : 2370 Stream size : 71.5 KiB (0%) Default : Yes Forced : No Menu 00:00:00.000 : en:Chapter 01 00:01:29.280 : en:Chapter 02 00:03:20.640 : en:Chapter 03 00:05:54.720 : en:Chapter 04 00:07:07.200 : en:Chapter 05 00:09:48.960 : en:Chapter 06 00:11:02.880 : en:Chapter 07 00:30:52.320 : en:Chapter 08 00:35:00.480 : en:Chapter 09 00:43:12.000 : en:Chapter 10 00:59:55.200 : en:Chapter 11 01:04:20.160 : en:Chapter 12 01:22:46.560 : en:Chapter 13 01:33:19.200 : en:Chapter 14 01:37:40.320 : en:Chapter 15 01:57:28.320 : en:Chapter 16 02:13:53.760 : en:Chapter 17 02:27:17.760 : en:Chapter 18
Screen Shots






Credits:TEAM TT


Press Here to Thanks (நன்றி சொல்ல இங்கே அழுத்தவும்) => <=Press Here!


Attached Files
File Type: torrent Theri(2016)~720p~AP DvdRip~x264~ESubs~Chaps~DTS~1.7gb~TTT.torrent (36.2 KB, 40 views), size: 1.79 gb, completed: 16
Name Size
File Type: torrent Theri(2016)~720p~AP DvdRip~x264~ESubs~Chaps~UTAC35.1~1.4gb~TTT.torrent (29.7 KB, 11 views), size: 1.47 gb, completed: 4
Name Size
Reply With Quote
The Following 9 Users Say Thank You to myviswaroopam For This Useful Post:

5 Lastest Threads by myviswaroopam
Thread Forum Last Poster Replies Views Last Post
Enakku Innoru Per... Web/Pre-DVD-Rip sasipushpa 5 698 07-22-2016 07:49 AM
Enakku Innoru Per... Web/Pre-DVD-Rip pavankumar 4 480 07-22-2016 06:35 AM
Enakku Innoru Per... Free Leech 3SCRN@TT 4 727 07-22-2016 05:33 AM

(#2 (permalink))
Old
|Genius|12,500+
Points: 206,093, Level: 1 Points: 206,093, Level: 1 Points: 206,093, Level: 1
Level up: 99% Level up: 99% Level up: 99%
Activity: 100% Activity: 100% Activity: 100%
Rep Power: 755
kurupam kurupam kurupam kurupam kurupam kurupam kurupam kurupam kurupam kurupam kurupam
 
06-11-2016, 08:11 AM

Thanks for the Theri 720p DVDRip Movies Share
Reply With Quote
(#3 (permalink))
Old
BAAHUBALI's Avatar
| Team Jaffa |
Points: 51,062, Level: 1 Points: 51,062, Level: 1 Points: 51,062, Level: 1
Level up: 99% Level up: 99% Level up: 99%
Activity: 81% Activity: 81% Activity: 81%
Rep Power: 204
BAAHUBALI BAAHUBALI BAAHUBALI BAAHUBALI BAAHUBALI BAAHUBALI BAAHUBALI BAAHUBALI BAAHUBALI BAAHUBALI BAAHUBALI
 
06-11-2016, 08:43 AM

Thanks For This Spark Ful Releases Macha ........ Thanks aton
Reply With Quote
(#4 (permalink))
Old
3SCRN@TT's Avatar
| TTTeam |
Rep Power: 1068
3SCRN@TT 3SCRN@TT 3SCRN@TT 3SCRN@TT 3SCRN@TT 3SCRN@TT 3SCRN@TT 3SCRN@TT 3SCRN@TT 3SCRN@TT 3SCRN@TT
 
06-11-2016, 10:16 AM

Great rips! clarity super! Thank you!


Reply With Quote
(#5 (permalink))
Old
TheMagam
Guest
 
06-11-2016, 03:18 PM

Thanks for multi rips of Theri in 720p.
Reply With Quote
(#6 (permalink))
Old
Thalapathy@TT's Avatar
| Movie | 3+
Points: 278,341, Level: 1 Points: 278,341, Level: 1 Points: 278,341, Level: 1
Level up: 99% Level up: 99% Level up: 99%
Activity: 100% Activity: 100% Activity: 100%
Rep Power: 1271
Thalapathy@TT Thalapathy@TT Thalapathy@TT Thalapathy@TT Thalapathy@TT Thalapathy@TT Thalapathy@TT Thalapathy@TT Thalapathy@TT Thalapathy@TT Thalapathy@TT
 
06-11-2016, 07:40 PM

Thanks For The DVD-Rip Release myviswaroopam


Reply With Quote
(#7 (permalink))
Old
ksmsd
Guest
 
06-12-2016, 07:51 AM

Thanks for Illaya Thalabathy`s Super Hit movie in Upscaled Dual Rips,myviswaroopam
Reply With Quote
(#8 (permalink))
Old
gael's Avatar
| TT - Releaser |
Points: 447,914, Level: 1 Points: 447,914, Level: 1 Points: 447,914, Level: 1
Level up: 99% Level up: 99% Level up: 99%
Activity: 100% Activity: 100% Activity: 100%
Rep Power: 1580
gael gael gael gael gael gael gael gael gael gael gael
 
06-13-2016, 06:22 PM

for the new movie in HQ.


Reply With Quote
Reply

Bookmarks

Thread Tools

Posting Rules
You may not post new threads
You may not post replies
You may not post attachments
You may not edit your posts

BB code is On
Smilies are On
[IMG] code is On
HTML code is Off
Trackbacks are On
Pingbacks are On
Refbacks are On


BitCoin: 1E5BgHWs1mGCi18fPvnzNYAEGi2jMgrJns



All times are GMT. The time now is 03:25 AM.


Powered by vBulletin® Version 3.8.7
Copyright ©2000 - 2017, vBulletin Solutions, Inc.
Search Engine Friendly URLs by vBSEO ©2011, Crawlability, Inc.
TTTeams
2003 - 2011 - TamilTorrent.com - TamilTorrent.net - TamilTorrent.tv - TamilTorrents.com - TamilTorrents.net - TamilTorrents.tv