TAMILTORRENTS  
Invite Your Friends Torrents



TT-Tube | Categories | Best Videos | Best Photos | Most viewed | Most voted

Go Back   TAMILTORRENTS > Tamil Releases > Tamil Rips > Upscaled
Upscaled Section for Tamil movies upscaled from Original DVD-5/9.


Reply
 
LinkBack Thread Tools
(#1 (permalink))
Old
shammu's Avatar
| Individual Releaser |
Points: 153,744, Level: 1 Points: 153,744, Level: 1 Points: 153,744, Level: 1
Level up: 99% Level up: 99% Level up: 99%
Activity: 4% Activity: 4% Activity: 4%
Rep Power: 638
shammu shammu shammu shammu shammu shammu shammu shammu shammu shammu shammu
 
Thumbs up Theri (2016) API 720p Upscaled x264 DD/DTS E-Subs 1.4/1.8GB - TamilTorrents.Net - 06-11-2016, 06:15 AM

Theri (2016) API 720p Upscaled x264 DD/DTS E-Subs 1.4/1.8GB - TamilTorrents.Net

Code:
ormat                                   : Matroska
Format version                           : Version 2
File size                                : 1.79 GiB
Duration                                 : 2h 30mn
Overall bit rate                         : 1 703 Kbps
Encoded date                             : UTC 2016-06-11 06:01:34
Writing application                      : mkvmerge v8.5.2 ('Crosses') 32bit
Writing library                          : libebml v1.3.3 + libmatroska v1.4.4

Video
ID                                       : 1
Format                                   : AVC
Format/Info                              : Advanced Video Codec
Format profile                           : High@L4
Format settings, CABAC                   : Yes
Format settings, ReFrames                : 8 frames
Codec ID                                 : V_MPEG4/ISO/AVC
Duration                                 : 2h 30mn
Bit rate                                 : 946 Kbps
Width                                    : 1 280 pixels
Height                                   : 544 pixels
Display aspect ratio                     : 2.35:1
Frame rate mode                          : Constant
Frame rate                               : 25.000 fps
Color space                              : YUV
Chroma subsampling                       : 4:2:0
Bit depth                                : 8 bits
Scan type                                : Progressive
Bits/(Pixel*Frame)                       : 0.054
Stream size                              : 1 016 MiB (56%)
Writing library                          : x264 core 148 r2638 7599210
Encoding settings                        : cabac=1 / ref=8 / deblock=1:-1:-1 / analyse=0x3:0x133 / me=umh / subme=7 / psy=1 / psy_rd=1.00:0.00 / mixed_ref=1 / me_range=16 / chroma_me=1 / trellis=2 / 8x8dct=1 / cqm=0 / deadzone=21,11 / fast_pskip=1 / chroma_qp_offset=-2 / threads=6 / lookahead_threads=1 / sliced_threads=0 / nr=0 / decimate=1 / interlaced=0 / bluray_compat=0 / constrained_intra=0 / bframes=3 / b_pyramid=2 / b_adapt=2 / b_bias=0 / direct=3 / weightb=1 / open_gop=0 / weightp=2 / keyint=250 / keyint_min=25 / scenecut=40 / intra_refresh=0 / rc_lookahead=40 / rc=2pass / mbtree=1 / bitrate=946 / ratetol=1.0 / qcomp=0.60 / qpmin=10 / qpmax=51 / qpstep=4 / cplxblur=20.0 / qblur=0.5 / ip_ratio=1.40 / aq=1:1.00
Default                                  : Yes
Forced                                   : No

Audio
ID                                       : 2
Format                                   : DTS
Format/Info                              : Digital Theater Systems
Mode                                     : 16
Format settings, Endianness              : Big
Codec ID                                 : A_DTS
Duration                                 : 2h 30mn
Bit rate mode                            : Constant
Bit rate                                 : 755 Kbps
Channel(s)                               : 6 channels
Channel positions                        : Front: L C R, Side: L R, LFE
Sampling rate                            : 48.0 KHz
Frame rate                               : 93.750 fps (512 spf)
Bit depth                                : 24 bits
Compression mode                         : Lossy
Stream size                              : 811 MiB (44%)
Default                                  : Yes
Forced                                   : No

Audio
ID                                       : 2
Format                                   : AC-3
Format/Info                              : Audio Coding 3
Mode extension                           : CM (complete main)
Format settings, Endianness              : Big
Codec ID                                 : A_AC3
Duration                                 : 2h 30mn
Bit rate mode                            : Constant
Bit rate                                 : 448 Kbps
Channel(s)                               : 6 channels
Channel positions                        : Front: L C R, Side: L R, LFE
Sampling rate                            : 48.0 KHz
Frame rate                               : 31.250 fps (1536 spf)
Compression mode                         : Lossy
Stream size                              : 481 MiB (32%)
Default                                  : Yes
Forced                                   : No

Text
ID                                       : 3
Format                                   : UTF-8
Codec ID                                 : S_TEXT/UTF8
Codec ID/Info                            : UTF-8 Plain Text
Duration                                 : 2h 28mn
Bit rate                                 : 66 bps
Count of elements                        : 2392
Stream size                              : 72.2 KiB (0%)
Language                                 : Tamil
Default                                  : Yes
Forced                                   : No






Press Here to Thanks (நன்றி சொல்ல இங்கே அழுத்தவும்) => <=Press Here!


Attached Files
File Type: torrent Theri (2016) API 720p Upscaled x264 AC3 E-Subs 1.4GB - TamilTorrents.Net.torrent (14.9 KB, 14 views), size: 1.46 gb, completed: 7
Name Size
File Type: torrent Theri (2016) API 720p Upscaled x264 DTS E-Subs 1.8GB - TamilTorrents.Net.torrent (18.2 KB, 14 views), size: 1.79 gb, completed: 7
Name Size


Reply With Quote
The Following 7 Users Say Thank You to shammu For This Useful Post:

5 Lastest Threads by shammu
Thread Forum Last Poster Replies Views Last Post
Amma Kanakku (2016) PDVD Rip x264 AAC 700MB -... Web/Pre-DVD-Rip anishdon 5 477 07-21-2016 04:50 PM
Leele (2016) DVD Rip x264 AAC 700MB - Shammu Malayalam DVD-Rip 3SCRN@TT 3 373 07-07-2016 10:06 AM
Urumeen (2015) Cust DVD NTSC DD - Shammu Pre-DVD-R usher 5 430 07-02-2016 04:36 PM
Vairamuthuvin Tamil Mutthugal... Collections & BGM gael 5 262 07-01-2016 05:58 PM

(#2 (permalink))
Old
|Genius|12,500+
Points: 206,093, Level: 1 Points: 206,093, Level: 1 Points: 206,093, Level: 1
Level up: 99% Level up: 99% Level up: 99%
Activity: 100% Activity: 100% Activity: 100%
Rep Power: 756
kurupam kurupam kurupam kurupam kurupam kurupam kurupam kurupam kurupam kurupam kurupam
 
06-11-2016, 06:40 AM

Thanks for the Theri 720P DVDRip Movies Share
Reply With Quote
(#3 (permalink))
Old
3SCRN@TT's Avatar
| TTTeam |
Rep Power: 1069
3SCRN@TT 3SCRN@TT 3SCRN@TT 3SCRN@TT 3SCRN@TT 3SCRN@TT 3SCRN@TT 3SCRN@TT 3SCRN@TT 3SCRN@TT 3SCRN@TT
 
06-11-2016, 10:19 AM

So many theri Thank you!


Reply With Quote
(#4 (permalink))
Old
TheMagam
Guest
 
06-11-2016, 03:13 PM

Thanks for Theri in 720p.
keep it up.
Reply With Quote
(#5 (permalink))
Old
Thalapathy@TT's Avatar
| Movie | 3+
Points: 279,102, Level: 1 Points: 279,102, Level: 1 Points: 279,102, Level: 1
Level up: 99% Level up: 99% Level up: 99%
Activity: 0% Activity: 0% Activity: 0%
Rep Power: 1272
Thalapathy@TT Thalapathy@TT Thalapathy@TT Thalapathy@TT Thalapathy@TT Thalapathy@TT Thalapathy@TT Thalapathy@TT Thalapathy@TT Thalapathy@TT Thalapathy@TT
 
06-11-2016, 07:56 PM

Thanks For The DVD-Rip Release shammu


Reply With Quote
(#6 (permalink))
Old
gael's Avatar
| TT - Releaser |
Points: 447,914, Level: 1 Points: 447,914, Level: 1 Points: 447,914, Level: 1
Level up: 99% Level up: 99% Level up: 99%
Activity: 100% Activity: 100% Activity: 100%
Rep Power: 1581
gael gael gael gael gael gael gael gael gael gael gael
 
06-13-2016, 06:22 PM

for the new movie in HQ.


Reply With Quote
Reply

Bookmarks

Thread Tools

Posting Rules
You may not post new threads
You may not post replies
You may not post attachments
You may not edit your posts

BB code is On
Smilies are On
[IMG] code is On
HTML code is Off
Trackbacks are On
Pingbacks are On
Refbacks are On


BitCoin: 1E5BgHWs1mGCi18fPvnzNYAEGi2jMgrJns



All times are GMT. The time now is 10:38 AM.


Powered by vBulletin® Version 3.8.7
Copyright ©2000 - 2017, vBulletin Solutions, Inc.
Search Engine Friendly URLs by vBSEO ©2011, Crawlability, Inc.
TTTeams
2003 - 2011 - TamilTorrent.com - TamilTorrent.net - TamilTorrent.tv - TamilTorrents.com - TamilTorrents.net - TamilTorrents.tv