TAMILTORRENTS  
Invite Your Friends Torrents



TT-Tube | Categories | Best Videos | Best Photos | Most viewed | Most voted

Go Back   TAMILTORRENTS > Tamil Releases > Misc releases > Music Video > VIDEO DVD-Rip
VIDEO DVD-Rip Section of Tamil Music Videos Rip's from Original DVD's, Pre-DVD's, DVD'Scr, R5's.


Closed Thread
 
LinkBack Thread Tools
(#1 (permalink))
Old
| TT - Releaser |
Points: 152,898, Level: 1 Points: 152,898, Level: 1 Points: 152,898, Level: 1
Level up: 99% Level up: 99% Level up: 99%
Activity: 6% Activity: 6% Activity: 6%
Rep Power: 537
TT Manisai TT Manisai TT Manisai TT Manisai TT Manisai TT Manisai TT Manisai TT Manisai TT Manisai TT Manisai TT Manisai
 
Talking Vanakkam Chennai -2013-Video Songs-AVI-XviD-AC3-5.1Ch-650MB-manisai@TT-Lotus - 10-27-2013, 03:01 PM

Movie:- Vanakkam Chennai

Cast:- Shiva, Priya Anand, Santhanam, Naasar, Oorvasi And Many Other’s…
Music:- Aniruth Ravichander
Cinematography:- Richard M.Nathan
Produced:- Udhayanithi Stalin
Directed:- Kiruthiga Udhayanithi.





-=FILE INFO=-


Code:
General
Complete name                    : Vanakkam Chennai -2013-Video Songs-AVI-XviD-AC3-5.1Ch-650MB-manisai@TT-Lotus\03. Osaka Osaka.avi
Format                           : AVI
Format/Info                      : Audio Video Interleave
File size                        : 129 MiB
Duration                         : 4mn 35s
Overall bit rate                 : 3 911 Kbps
Writing application              : Lavf52.93.0

Video
ID                               : 0
Format                           : MPEG-4 Visual
Format profile                   : Simple@L1
Format settings, BVOP            : No
Format settings, QPel            : No
Format settings, GMC             : No warppoints
Format settings, Matrix          : Default (H.263)
Codec ID                         : FMP4
Duration                         : 4mn 35s
Bit rate                         : 3 451 Kbps
Width                            : 720 pixels
Height                           : 304 pixels
Display aspect ratio             : 2.35:1
Frame rate                       : 29.970 fps
Color space                      : YUV
Chroma subsampling               : 4:2:0
Bit depth                        : 8 bits
Scan type                        : Progressive
Compression mode                 : Lossy
Bits/(Pixel*Frame)               : 0.526
Stream size                      : 113 MiB (88%)
Writing library                  : Lavc52.108.0

Audio
ID                               : 1
Format                           : AC-3
Format/Info                      : Audio Coding 3
Codec ID                         : 00001000-0000-0020-8000-00AA00389B71
Duration                         : 4mn 35s
Bit rate                         : 448 Kbps
Channel(s)                       : 6 channels
Channel positions                : Front: L C R, Side: L R, LFE
Sampling rate                    : 48.0 KHz
Bit depth                        : 16 bits
Compression mode                 : Lossy
Stream size                      : 14.7 MiB (11%)
Interleave, duration             : 32 ms (0.96 video frame)

-=TRACK LIST=-





01. Hey!

02. Engadi Porandhat

03. Osaka Osaka

04. Oh Penne

05. Ailasa Ailasa

06. Chennai City Gangsta.


-=SCREEN SHOTS=-










THANKS & REP Is The Secrect Of Our Energy!!!Don't Forget To Click THANKS & REP


Press Here to Thanks (நன்றி சொல்ல இங்கே அழுத்தவும்) => <=Press Here!


Attached Files
File Type: torrent Vanakkam Chennai -2013-Video Songs-AVI-XviD-AC3-5.1Ch-650MB-manisai@TT-Lotus.torrent (13.4 KB, 78 views), size: 641.78 mb, completed: 42
Name Size
Name Completed % Left Uploaded Downloaded Up Rate Down Rate Last Announce

Last edited by TT Manisai; 10-27-2013 at 03:56 PM.
The Following 14 Users Say Thank You to TT Manisai For This Useful Post:

5 Lastest Threads by TT Manisai
Thread Forum Last Poster Replies Views Last Post
SCR-RIP - Uttama Villain - 2015 - X264 - MKV -... New VCD/TC fassyhameed 13 3853 05-05-2015 11:27 PM
WEB-RIP - Komban - 2015 - 1080P-HD - X264 - MKV -... Web/Pre-DVD-Rip myviswaroopam 5 560 05-03-2015 04:32 AM
WEB-RIP - Komban - 2015 - X264 - MKV - 700MB -... Web/Pre-DVD-Rip bala21 7 406 05-02-2015 12:30 PM
WEB-RIP - Valiyavan - 2015 - X264 - MKV - 700MB -... Web/Pre-DVD-Rip Thalapathy@TT 6 410 04-18-2015 10:09 AM
WEB-RIP - Enakkul Oruvan - 2015 - X264 - MKV -... Web/Pre-DVD-Rip storrentz 6 522 04-14-2015 02:20 PM

(#2 (permalink))
Old
| TTTeam |
Rep Power: 1206
Tamilpriyan Tamilpriyan Tamilpriyan Tamilpriyan Tamilpriyan Tamilpriyan Tamilpriyan Tamilpriyan Tamilpriyan Tamilpriyan Tamilpriyan
 
10-27-2013, 03:20 PM

Thanks for the rip share.
(#3 (permalink))
Old
Mallu Maaman's Avatar
|Brain|1500+
Points: 53,337, Level: 1 Points: 53,337, Level: 1 Points: 53,337, Level: 1
Level up: 99% Level up: 99% Level up: 99%
Activity: 16% Activity: 16% Activity: 16%
Rep Power: 287
Mallu Maaman Mallu Maaman Mallu Maaman Mallu Maaman Mallu Maaman Mallu Maaman Mallu Maaman Mallu Maaman Mallu Maaman Mallu Maaman Mallu Maaman
 
10-27-2013, 04:00 PM

Thanks for the movie...
(#4 (permalink))
Old
ksmsd's Avatar
| TT - Releaser |
Points: 298,057, Level: 1 Points: 298,057, Level: 1 Points: 298,057, Level: 1
Level up: 99% Level up: 99% Level up: 99%
Activity: 100% Activity: 100% Activity: 100%
Rep Power: 1268
ksmsd ksmsd ksmsd ksmsd ksmsd ksmsd ksmsd ksmsd ksmsd ksmsd ksmsd
 
10-28-2013, 11:34 AM

Thanks for the Video songs, manisai


http://i.imgur.com/TvocX.png
(#5 (permalink))
Old
NeoSaSI's Avatar
|Brain|1500+
Points: 33,263, Level: 1 Points: 33,263, Level: 1 Points: 33,263, Level: 1
Level up: 99% Level up: 99% Level up: 99%
Activity: 1% Activity: 1% Activity: 1%
Rep Power: 243
NeoSaSI NeoSaSI NeoSaSI NeoSaSI NeoSaSI NeoSaSI NeoSaSI NeoSaSI NeoSaSI NeoSaSI NeoSaSI
 
10-28-2013, 07:59 PM

Thanks for the rip!


[
(#6 (permalink))
Old
Ripping Kingz's Avatar
|Professor|1000+
Points: 29,270, Level: 1 Points: 29,270, Level: 1 Points: 29,270, Level: 1
Level up: 99% Level up: 99% Level up: 99%
Activity: 14% Activity: 14% Activity: 14%
Rep Power: 213
Ripping Kingz Ripping Kingz Ripping Kingz Ripping Kingz Ripping Kingz Ripping Kingz Ripping Kingz Ripping Kingz Ripping Kingz Ripping Kingz Ripping Kingz
 
10-28-2013, 10:19 PM

Thanks For Sharing
Closed Thread

Bookmarks

Thread Tools

Posting Rules
You may not post new threads
You may not post replies
You may not post attachments
You may not edit your posts

BB code is On
Smilies are On
[IMG] code is On
HTML code is Off
Trackbacks are On
Pingbacks are On
Refbacks are On


Similar Threads
Thread Thread Starter Forum Replies Last Post
Pandiya Nadu (2013) - HD Rip - Video songs - 720p - Mp4 - AAC - 300MB - SR@TT SR@TT 720P-Rip 7 11-20-2014 11:23 AM
Pizza II: Villa (2013) ~ Lotus DVDRip XviD - 1CDRip - 700MB - Tamil - BookReader - TT bookreader Web/Pre-DVD-Rip 11 12-22-2013 08:09 PM
Singam II (2013) - Lotus DVDRip - 2CD - XviD - King M@ker King M@ker Web/Pre-DVD-Rip 8 08-02-2013 07:30 AM
Soodhu Kavvum (2013) - Official Video Songs - HD - 720P sivadinesh 720P-Rip 6 06-16-2013 08:48 AM
Singam (2010)HQ Lotus Fivestar 2.1 Video Songs XVID sweetchandran VIDEO DVD-Rip 18 08-24-2010 10:14 AM

BitCoin: 1E5BgHWs1mGCi18fPvnzNYAEGi2jMgrJns



All times are GMT. The time now is 06:08 PM.


Powered by vBulletin® Version 3.8.7
Copyright ©2000 - 2015, vBulletin Solutions, Inc.
Search Engine Friendly URLs by vBSEO ©2011, Crawlability, Inc.
TTTeams
© 2003 - 2011 - TamilTorrent.com - TamilTorrent.net - TamilTorrent.tv - TamilTorrents.com - TamilTorrents.net - TamilTorrents.tv