TAMILTORRENTS  
Invite Your Friends Torrents



TT-Tube | Categories | Best Videos | Best Photos | Most viewed | Most voted

Go Back   TAMILTORRENTS > Tamil Releases > Audio releases > Movie Albums > Old Albums
Old Albums Section for Tamil Movie Albums released before 2014.


Closed Thread
 
LinkBack Thread Tools
(#1 (permalink))
Old
|Expert|500+
Points: 80,011, Level: 1 Points: 80,011, Level: 1 Points: 80,011, Level: 1
Level up: 99% Level up: 99% Level up: 99%
Activity: 13% Activity: 13% Activity: 13%
Rep Power: 370
Loudovic Loudovic Loudovic Loudovic Loudovic Loudovic Loudovic Loudovic Loudovic Loudovic Loudovic
 
Mp3 - Idharkuthane Aasaipattai Balakumara - Tamil - 2013 - 320Kbps - Loudovic - 08-30-2013, 12:14 PM

Idharkuthane Aasaipattai Balakumara

Siddarth Vippin




Rip Info

Code:
Audio Format: MPEG Audio Format version : Version 1 Format profile: Layer 3 Mode: Joint stereo Duration: 4mn 9s Bit rate mode: Constant Bit rate: 320 Kbps Channel(s): 2 channels Sampling rate: 48.0 KHz Compression mode: Lossy Stream size: 9.52 MiB (99%) Writing library: LAME3.99r
Track List

Code:
1. En Veetula Singer: Gaana Bala Lyricist: Lalithanad 2. Yaen Endral Singer: Hariharan, Vishnupriya, R Maalavika Manoj Lyricist: Madan Karky 3. Enge Ponaalum (Prayer Song) Singer: Naresh Iyer Lyricist: Madan Karky 4. Naaye Naaye Singer: Ved Shankar Lyricist: NA
Full Media Info

Code:
General Complete name : C:\Users\Invité\Music\Mp3 - Idharkuthane Aasaipattai Balakumara - Tamil - 2013 - 320Kbps Extreme VBR - Loudovic - TTTeam\En Veetula.mp3 Format : MPEG Audio File size : 9.62 MiB Duration : 4mn 9s Overall bit rate mode : Constant Overall bit rate : 320 Kbps Album : Idharkuthaane Aasaipattai Balakumara Track name : En Veetula Track name/Position : 1 Performer : Gaana Bala Recorded date : 2013 Writing library : LAME3.99r Cover : Yes Cover description : C:\Users\Invité\Desktop\Idharkuthane_Aasaipattai_Balakumara_Audio_Cover.jpg Cover type : Cover (front) Cover MIME : image/jpeg Audio Format : MPEG Audio Format version : Version 1 Format profile : Layer 3 Mode : Joint stereo Duration : 4mn 9s Bit rate mode : Constant Bit rate : 320 Kbps Channel(s) : 2 channels Sampling rate : 48.0 KHz Compression mode : Lossy Stream size : 9.52 MiB (99%) Writing library : LAME3.99r Encoding settings : -m j -V 4 -q 3 -lowpass 20.5 General Complete name : C:\Users\Invité\Music\Mp3 - Idharkuthane Aasaipattai Balakumara - Tamil - 2013 - 320Kbps Extreme VBR - Loudovic - TTTeam\Enge Ponaalum (Prayer Song).mp3 Format : MPEG Audio File size : 10.6 MiB Duration : 4mn 35s Overall bit rate mode : Constant Overall bit rate : 320 Kbps Album : Idharkuthane Aasaipattai Balakumara Track name : Enge Ponaalum (Prayer Song) Track name/Position : 3 Performer : Naresh Iyer, Dr. Narayanan Recorded date : 2013 Writing library : LAME3.99r Cover : Yes Cover description : C:\Users\Invité\Desktop\Idharkuthane_Aasaipattai_Balakumara_Audio_Cover.jpg Cover type : Cover (front) Cover MIME : image/jpeg Audio Format : MPEG Audio Format version : Version 1 Format profile : Layer 3 Mode : Joint stereo Mode extension : MS Stereo Duration : 4mn 35s Bit rate mode : Constant Bit rate : 320 Kbps Channel(s) : 2 channels Sampling rate : 48.0 KHz Compression mode : Lossy Stream size : 10.5 MiB (99%) Writing library : LAME3.99r Encoding settings : -m j -V 4 -q 3 -lowpass 20.5 General Complete name : C:\Users\Invité\Music\Mp3 - Idharkuthane Aasaipattai Balakumara - Tamil - 2013 - 320Kbps Extreme VBR - Loudovic - TTTeam\Folder.jpg Format : JPEG File size : 13.8 KiB Image Format : JPEG Width : 200 pixels Height : 200 pixels Color space : YUV Chroma subsampling : 4:2:0 Bit depth : 8 bits Compression mode : Lossy Stream size : 13.8 KiB (100%) General Complete name : C:\Users\Invité\Music\Mp3 - Idharkuthane Aasaipattai Balakumara - Tamil - 2013 - 320Kbps Extreme VBR - Loudovic - TTTeam\Front And Back Cover.jpg Format : JPEG File size : 60.3 KiB Image Format : JPEG Width : 720 pixels Height : 408 pixels Color space : YUV Chroma subsampling : 4:2:0 Bit depth : 8 bits Compression mode : Lossy Stream size : 60.3 KiB (100%) General Complete name : C:\Users\Invité\Music\Mp3 - Idharkuthane Aasaipattai Balakumara - Tamil - 2013 - 320Kbps Extreme VBR - Loudovic - TTTeam\Yaen Endral.mp3 Format : MPEG Audio File size : 10.4 MiB Duration : 4mn 30s Overall bit rate mode : Constant Overall bit rate : 320 Kbps Album : Idharkuthaane Aasaipattai Balakumara Track name : Yaen Endral Track name/Position : 2 Performer : Hariharan, Vishnupriya, R Maalavika Manoj Recorded date : 2013 Writing library : LAME3.99r Cover : Yes Cover description : C:\Users\Invité\Desktop\Idharkuthane_Aasaipattai_Balakumara_Audio_Cover.jpg Cover type : Cover (front) Cover MIME : image/jpeg Audio Format : MPEG Audio Format version : Version 1 Format profile : Layer 3 Mode : Joint stereo Duration : 4mn 30s Bit rate mode : Constant Bit rate : 320 Kbps Channel(s) : 2 channels Sampling rate : 48.0 KHz Compression mode : Lossy Stream size : 10.3 MiB (99%) Writing library : LAME3.99r Encoding settings : -m j -V 4 -q 3 -lowpass 20.5


Press Here to Thanks (நன்றி சொல்ல இங்கே அழுத்தவும்) => <=Press Here!


Attached Files
File Type: torrent Mp3 - Idharkuthane Aasaipattai Balakumara - Tamil - 2013 - 320Kbps Extreme VBR - Loudovic - .torrent (19.7 KB, 588 views), size: 30.73 mb, completed: 428
Name Size
Name Completed % Left Uploaded Downloaded Up Rate Down Rate Last Announce
File Type: torrent Naaye Naaye.mp3.torrent (9.2 KB, 172 views), size: 7.22 mb, seeders: 1, completed: 152
Name Size
Name Completed % Left Uploaded Downloaded Up Rate Down Rate Last Announce

Last edited by Loudovic; 08-30-2013 at 02:27 PM.

5 Lastest Threads by Loudovic
Thread Forum Last Poster Replies Views Last Post
[MP3]Romeo Juliet (2015) - 320Kbps - CBR - Team TT New Albums storrentz 13 654 03-11-2015 10:51 PM
Yennai Arindhaal (2015) - Video Songs - 720P -... 720P-Rip storrentz 11 740 02-23-2015 06:46 PM
[WEB-RIP]Gnana Kirukan 2014 - 720P - AVC -... Pre-DVD-Rip myviswaroopam 6 555 12-21-2014 10:40 PM
[DVD5]Vetrimaran IPS (2014) - Tamil - DVD5 - DD... Pre-DVD-R Amuna 5 879 08-30-2014 02:06 PM

(#2 (permalink))
Old
|Contributor|100+
Points: 5,384, Level: 1 Points: 5,384, Level: 1 Points: 5,384, Level: 1
Level up: 99% Level up: 99% Level up: 99%
Activity: 0% Activity: 0% Activity: 0%
Rep Power: 0
s.naresh1502 s.naresh1502 s.naresh1502 s.naresh1502 s.naresh1502 s.naresh1502 s.naresh1502 s.naresh1502 s.naresh1502 s.naresh1502 s.naresh1502
 
08-30-2013, 12:24 PM

Thaks for this release
(#3 (permalink))
Old
tamil_boss's Avatar
|Sage|2500+
Points: 67,695, Level: 1 Points: 67,695, Level: 1 Points: 67,695, Level: 1
Level up: 99% Level up: 99% Level up: 99%
Activity: 1% Activity: 1% Activity: 1%
Rep Power: 389
tamil_boss tamil_boss tamil_boss tamil_boss tamil_boss tamil_boss tamil_boss tamil_boss tamil_boss tamil_boss tamil_boss
 
08-30-2013, 12:58 PM

Thanks Loudovic for the share !


(#4 (permalink))
Old
kumarann's Avatar
| TT - Releaser |
Points: 132,372, Level: 1 Points: 132,372, Level: 1 Points: 132,372, Level: 1
Level up: 99% Level up: 99% Level up: 99%
Activity: 16% Activity: 16% Activity: 16%
Rep Power: 608
kumarann kumarann kumarann kumarann kumarann kumarann kumarann kumarann kumarann kumarann kumarann
 
08-30-2013, 01:03 PM

Thanks a lot bro
Reps added soon



கஷ்டபடாம வாழ்க்கையில எதுவுமே கிடைக்காது,
கஷ்டபடாம கிடைச்சது வாழ்க்கையில என்னைக்குமே நிலைக்காது

சூப்பர்ஸ்டார் ரஜினிகாந்த்


(#5 (permalink))
Old
gael's Avatar
| TT - Releaser |
Points: 347,232, Level: 1 Points: 347,232, Level: 1 Points: 347,232, Level: 1
Level up: 99% Level up: 99% Level up: 99%
Activity: 99% Activity: 99% Activity: 99%
Rep Power: 1153
gael gael gael gael gael gael gael gael gael gael gael
 
08-30-2013, 10:58 PM

Thanks for the share
Rep+
(#6 (permalink))
Old
Usthad's Avatar
|Brain|1500+
Points: 35,311, Level: 1 Points: 35,311, Level: 1 Points: 35,311, Level: 1
Level up: 99% Level up: 99% Level up: 99%
Activity: 92% Activity: 92% Activity: 92%
Rep Power: 208
Usthad Usthad Usthad Usthad Usthad Usthad Usthad Usthad Usthad Usthad Usthad
 
08-31-2013, 04:33 AM

Thanks a lot..
(#7 (permalink))
Old
Baladu93's Avatar
| Golden Members |
Points: 103,937, Level: 1 Points: 103,937, Level: 1 Points: 103,937, Level: 1
Level up: 99% Level up: 99% Level up: 99%
Activity: 23% Activity: 23% Activity: 23%
Rep Power: 498
Baladu93 Baladu93 Baladu93 Baladu93 Baladu93 Baladu93 Baladu93 Baladu93 Baladu93 Baladu93 Baladu93
 
09-01-2013, 08:00 AM

Thanks for the release! Reps added!
(#8 (permalink))
Old
Kamal.Pithan's Avatar
| Golden Members |
Points: 124,241, Level: 1 Points: 124,241, Level: 1 Points: 124,241, Level: 1
Level up: 99% Level up: 99% Level up: 99%
Activity: 5% Activity: 5% Activity: 5%
Rep Power: 673
Kamal.Pithan Kamal.Pithan Kamal.Pithan Kamal.Pithan Kamal.Pithan Kamal.Pithan Kamal.Pithan Kamal.Pithan Kamal.Pithan Kamal.Pithan Kamal.Pithan
 
09-01-2013, 09:40 PM

Thanks for the release! Reps added!
(#9 (permalink))
Old
doskar1's Avatar
|Wiz|150+
Points: 3,175, Level: 1 Points: 3,175, Level: 1 Points: 3,175, Level: 1
Level up: 99% Level up: 99% Level up: 99%
Activity: 0% Activity: 0% Activity: 0%
Rep Power: 132
doskar1 doskar1 doskar1 doskar1 doskar1 doskar1 doskar1 doskar1 doskar1 doskar1 doskar1
 
09-23-2013, 04:15 AM

Thanks for the share....
(#10 (permalink))
Old
usher's Avatar
Premium User
Points: 38,833, Level: 1 Points: 38,833, Level: 1 Points: 38,833, Level: 1
Level up: 99% Level up: 99% Level up: 99%
Activity: 21% Activity: 21% Activity: 21%
Rep Power: 304
usher usher usher usher usher usher usher usher usher usher usher
 
10-04-2013, 04:09 PM

thanks for the audio
Closed Thread

Bookmarks

Thread Tools

Posting Rules
You may not post new threads
You may not post replies
You may not post attachments
You may not edit your posts

BB code is On
Smilies are On
[IMG] code is On
HTML code is Off
Trackbacks are On
Pingbacks are On
Refbacks are On


Similar Threads
Thread Thread Starter Forum Replies Last Post
MP3 - Idharkuthane Aasaipattai Balakumara Rare Collections - TTT BillaII Collections & BGM 4 01-07-2014 03:14 AM
Mp3 - Idharkuthane Aasaipattai Balakumara - 2013 - 320 - Kbps - VBR - OST - TTT kumarann Old Albums 9 10-04-2013 04:13 PM
MP3 - Surya's Complete Collections - 320Kbps - CBR kumarann Collections & BGM 14 08-01-2013 12:59 PM

BitCoin: 1E5BgHWs1mGCi18fPvnzNYAEGi2jMgrJns



All times are GMT. The time now is 06:09 AM.


Powered by vBulletin® Version 3.8.7
Copyright ©2000 - 2015, vBulletin Solutions, Inc.
Search Engine Friendly URLs by vBSEO ©2011, Crawlability, Inc.
TTTeams
© 2003 - 2011 - TamilTorrent.com - TamilTorrent.net - TamilTorrent.tv - TamilTorrents.com - TamilTorrents.net - TamilTorrents.tv