TAMILTORRENTS  
Invite Your Friends Torrents



TT-Tube | Categories | Best Videos | Best Photos | Most viewed | Most voted

Go Back   TAMILTORRENTS > Tamil Releases > Misc releases > Music Video > BluRay / HD > 720P-Rip
720P-Rip Section for Tamil Music Videos 720P ripped from Blu-ray or HD


Closed Thread
 
LinkBack Thread Tools
(#1 (permalink))
Old
sivadinesh's Avatar
|Wiz|150+
Points: 54,634, Level: 1 Points: 54,634, Level: 1 Points: 54,634, Level: 1
Level up: 99% Level up: 99% Level up: 99%
Activity: 2% Activity: 2% Activity: 2%
Rep Power: 251
sivadinesh sivadinesh sivadinesh sivadinesh sivadinesh sivadinesh sivadinesh sivadinesh sivadinesh sivadinesh sivadinesh
 
Arrow Soodhu Kavvum (2013) - Official Video Songs - HD - 720P - 05-07-2013, 04:10 PM

Soodhu Kavvum (2013) - Official Video Songs - HD - 720P

:::Poster:::



:::Song Info:::


Code:
:::Ellam Kadandhu:::
General Complete name :Ellam Kadandhu.mp4 Format : MPEG-4 Format profile : Base Media / Version 2 Codec ID : mp42 File size : 34.3 MiB Duration : 1mn 42s Overall bit rate mode : Variable Overall bit rate : 2 818 Kbps Encoded date : UTC 2013-05-01 14:24:40 Tagged date : UTC 2013-05-01 14:24:40 gsst : 0 gstd : 102236 gssd : B4A7DA924HH1367918086849681 gshh : r15---sn-h557snee.c.youtube.com Video ID : 1 Format : AVC Format/Info : Advanced Video Codec Format profile : High@L3.1 Format settings, CABAC : Yes Format settings, ReFrames : 1 frame Format settings, GOP : M=1, N=60 Codec ID : avc1 Codec ID/Info : Advanced Video Coding Duration : 1mn 42s Bit rate : 2 672 Kbps Maximum bit rate : 6 846 Kbps Width : 1 280 pixels Height : 720 pixels Display aspect ratio : 16:9 Frame rate mode : Constant Frame rate : 24.000 fps Color space : YUV Chroma subsampling : 4:2:0 Bit depth : 8 bits Scan type : Progressive Bits/(Pixel*Frame) : 0.121 Stream size : 32.5 MiB (95%) Tagged date : UTC 2013-05-01 14:24:41 Audio ID : 2 Format : AAC Format/Info : Advanced Audio Codec Format profile : LC Codec ID : 40 Duration : 1mn 42s Bit rate mode : Variable Bit rate : 144 Kbps Maximum bit rate : 151 Kbps Channel(s) : 1 channel Channel positions : Front: C Sampling rate : 44.1 KHz Compression mode : Lossy Stream size : 1.75 MiB (5%) Title : IsoMedia File Produced by Google, 5-11-2011 Encoded date : UTC 2013-05-01 14:24:40 Tagged date : UTC 2013-05-01 14:24:41
Code:
:::Kasu Panam:::
General Complete name :Kasu Panam.mp4 Format : MPEG-4 Format profile : Base Media / Version 2 Codec ID : mp42 File size : 35.0 MiB Duration : 1mn 36s Overall bit rate mode : Variable Overall bit rate : 3 050 Kbps Encoded date : UTC 2013-04-24 09:04:23 Tagged date : UTC 2013-04-24 09:04:23 gsst : 0 gstd : 96361 gssd : B4A7DA963HH1367897288497184 gshh : r9---sn-h557snes.c.youtube.com Video ID : 1 Format : AVC Format/Info : Advanced Video Codec Format profile : High@L3.1 Format settings, CABAC : Yes Format settings, ReFrames : 1 frame Codec ID : avc1 Codec ID/Info : Advanced Video Coding Duration : 1mn 36s Bit rate : 2 904 Kbps Maximum bit rate : 4 715 Kbps Width : 1 280 pixels Height : 720 pixels Display aspect ratio : 16:9 Frame rate mode : Constant Frame rate : 24.000 fps Color space : YUV Chroma subsampling : 4:2:0 Bit depth : 8 bits Scan type : Progressive Bits/(Pixel*Frame) : 0.131 Stream size : 33.3 MiB (95%) Tagged date : UTC 2013-04-24 09:04:35 Audio ID : 2 Format : AAC Format/Info : Advanced Audio Codec Format profile : LC Codec ID : 40 Duration : 1mn 36s Bit rate mode : Variable Bit rate : 144 Kbps Maximum bit rate : 150 Kbps Channel(s) : 1 channel Channel positions : Front: C Sampling rate : 44.1 KHz Compression mode : Lossy Stream size : 1.65 MiB (5%) Title : IsoMedia File Produced by Google, 5-11-2011 Encoded date : UTC 2013-04-24 09:04:32 Tagged date : UTC 2013-04-24 09:04:35



:::Scree Shots:::

:::Ellam Kadandhu:::







:::Kasu Panam:::








Press Here to Thanks (நன்றி சொல்ல இங்கே அழுத்தவும்) => <=Press Here!


Attached Files <div style="background-color: none transparent;"><a onclick="_gaq.push(['_trackEvent', 'Outgoing', 'news.rsspump.com', '/']);" href="http://www.tamiltorrents.net/forums/redirect-to/?redirect=http%3A%2F%2Fnews.rsspump.com%2F" title="rsspump">news</a></div>
File Type: torrent Soodhu Kavvum.torrent (11.3 KB, 210 views), size: 69.29 mb, seeders: 1, leechers: 1, completed: 122
Name Size
Name Completed % Left Uploaded Downloaded Up Rate Down Rate Last Announce

5 Lastest Threads by sivadinesh
Thread Forum Last Poster Replies Views Last Post
MP3 ~ I ~(2014)~ACD Rip ~ 320Kbps ~ CBR ~... New Albums saliworld 9 742 09-14-2014 05:32 PM
Saleem-CINEMA_CLUB New VCD/TC abies-giri 7 1038 09-10-2014 07:42 AM
Oru Modhal Oru Kadhal - 2014 - Web HD Pre-DVD-R usher 6 512 07-26-2014 05:23 PM
Apsaras - 2014 - Web Rip Pre-DVD-Rip archana420 4 704 07-25-2014 05:07 PM

(#2 (permalink))
Old
Vijay@TT's Avatar
| TT - Releaser |
Points: 252,477, Level: 1 Points: 252,477, Level: 1 Points: 252,477, Level: 1
Level up: 99% Level up: 99% Level up: 99%
Activity: 100% Activity: 100% Activity: 100%
Rep Power: 872
Vijay@TT Vijay@TT Vijay@TT Vijay@TT Vijay@TT Vijay@TT Vijay@TT Vijay@TT Vijay@TT Vijay@TT Vijay@TT
 
05-07-2013, 09:01 PM

Thanks For Sharing



Turbo Speed Seeding
IF You Like My Release Add Rep and say Thanks


(#3 (permalink))
Old
| TT - Releaser |
Points: 118,835, Level: 1 Points: 118,835, Level: 1 Points: 118,835, Level: 1
Level up: 99% Level up: 99% Level up: 99%
Activity: 0% Activity: 0% Activity: 0%
Rep Power: 388
TT Manisai TT Manisai TT Manisai TT Manisai TT Manisai TT Manisai TT Manisai TT Manisai TT Manisai TT Manisai TT Manisai
 
05-07-2013, 09:12 PM

Thanks For Sharing
(#4 (permalink))
Old
kumarann's Avatar
| TT - Releaser |
Points: 103,366, Level: 1 Points: 103,366, Level: 1 Points: 103,366, Level: 1
Level up: 99% Level up: 99% Level up: 99%
Activity: 57% Activity: 57% Activity: 57%
Rep Power: 463
kumarann kumarann kumarann kumarann kumarann kumarann kumarann kumarann kumarann kumarann kumarann
 
05-08-2013, 03:43 PM

Thanks for the release
(#5 (permalink))
Old
goldenkaja's Avatar
|Expert|500+
Points: 10,173, Level: 1 Points: 10,173, Level: 1 Points: 10,173, Level: 1
Level up: 99% Level up: 99% Level up: 99%
Activity: 1% Activity: 1% Activity: 1%
Rep Power: 155
goldenkaja goldenkaja goldenkaja goldenkaja goldenkaja goldenkaja goldenkaja goldenkaja goldenkaja goldenkaja goldenkaja
 
05-08-2013, 07:29 PM

Thanks for songs


(#6 (permalink))
Old
Banned
Points: 92,355, Level: 1 Points: 92,355, Level: 1 Points: 92,355, Level: 1
Level up: 99% Level up: 99% Level up: 99%
Activity: 68% Activity: 68% Activity: 68%
Rep Power: 0
kjay82 kjay82 kjay82 kjay82 kjay82 kjay82 kjay82 kjay82 kjay82 kjay82 kjay82
 
05-09-2013, 01:34 AM

Thanks for the release
(#7 (permalink))
Old
ratp's Avatar
Premium User
Points: 17,608, Level: 1 Points: 17,608, Level: 1 Points: 17,608, Level: 1
Level up: 99% Level up: 99% Level up: 99%
Activity: 19% Activity: 19% Activity: 19%
Rep Power: 200
ratp ratp ratp ratp ratp ratp ratp ratp ratp ratp ratp
 
06-16-2013, 08:48 AM

thanks nice release
Closed Thread

Bookmarks

Thread Tools

Posting Rules
You may not post new threads
You may not post replies
You may not post attachments
You may not edit your posts

BB code is On
Smilies are On
[IMG] code is On
HTML code is Off
Trackbacks are On
Pingbacks are On
Refbacks are On


Similar Threads
Thread Thread Starter Forum Replies Last Post
Yesudas Telugu 143 Old MP3 Hit Songs 617MB tsai_babu tsai_babu Telugu Albums 14 04-04-2014 08:48 AM
Pandiya Nadu (2013) - HD Rip - Video songs - 720p - Mp4 - AAC - 300MB - SR@TT SR@TT 720P-Rip 3 03-13-2014 08:05 PM
Voice Of Young Super Star Simbu's - 43 Songs sivadinesh Other Albums 4 12-08-2013 11:41 AM
Aashiqui 2 (2013) - 720P Video Songs Ary@n Hindi Others 1 07-01-2013 09:29 PM
COCKTAIL (2012) EROS International OFFICIAL VIDEO SONGS 720p sriszone Hindi Others 3 08-11-2012 07:21 AM

BitCoin: 1JrGbW2zyJSDGjKSvFt4F5m3eRTSQ8qwyt



All times are GMT. The time now is 12:12 PM.


Powered by vBulletin® Version 3.8.7
Copyright ©2000 - 2014, vBulletin Solutions, Inc.
Search Engine Friendly URLs by vBSEO ©2011, Crawlability, Inc.
TTTeams
2003 - 2011 - TamilTorrent.com - TamilTorrent.net - TamilTorrent.tv - TamilTorrents.com - TamilTorrents.net - TamilTorrents.tv