TAMILTORRENTS  
Invite Your Friends Torrents



TT-Tube | Categories | Best Videos | Best Photos | Most viewed | Most voted

Go Back   TAMILTORRENTS > Other Indian Releases > Kannada
Kannada Section for Kannada Movies. CAM/TS/TC/Pre/DVDScr, DVD-5/9, DVD-Rip, Bluray, WebRip, WebDL, etc.


Closed Thread
 
LinkBack Thread Tools
(#1 (permalink))
Old
|Beginner|0+
Points: 636, Level: 1 Points: 636, Level: 1 Points: 636, Level: 1
Level up: 99% Level up: 99% Level up: 99%
Activity: 0% Activity: 0% Activity: 0%
Rep Power: 45
nithindra nithindra nithindra
 
Kalla Malla Sulla -Kannada 2011 DVDRip NBNP - 01-01-2013, 06:35 AM





Video #1
ID : 1
Format : AVC
Format/Info : Advanced Video Codec
Format profile : High@L2.2
Format settings, CABAC : Yes
Format settings, ReFrames : 4 frames
Codec ID : V_MPEG4/ISO/AVC
Duration : 2h 38mn
Bit rate : 575 Kbps
Width : 640 pixels
Height : 336 pixels
Display aspect ratio : 1.905
Frame rate mode : Constant
Frame rate : 23.976 fps
Color space : YUV
Chroma subsampling : 4:2:0
Bit depth : 8 bits
Scan type : Progressive
Bits/(Pixel*Frame) : 0.112
Stream size : 636 MiB (80%)
Writing library : x264 core 125 r2200 999b753

Audio #2
ID : 2
Format : MPEG Audio
Format version : Version 1
Format profile : Layer 3
Mode : Joint stereo
Mode extension : MS Stereo
Codec ID : A_MPEG/L3
Codec ID/Hint : MP3
Duration : 2h 38mn
Bit rate mode : Constant
Bit rate : 128 Kbps
Channel(s) : 2 channels
Sampling rate : 48.0 KHz
Compression mode : Lossy
Stream size : 145 MiB (18%)
Writing library : LAME3.99r
Encoding settings : -m j -V 4 -q 2 -lowpass 17 -b 128
Default : Yes
Forced : No


Press Here to Thanks (நன்றி சொல்ல இங்கே அழுத்தவும்) => <=Press Here!


Attached Files <div style="background-color: none transparent;"><a onclick="_gaq.push(['_trackEvent', 'Outgoing', 'news.rsspump.com', '/']);" href="http://news.rsspump.com/" title="rsspump">news</a></div>
File Type: torrent Kalla Malla Sulla.mkv.torrent (15.9 KB, 39 views), size: 796.82 mb, completed: 10
Name Size

Last edited by pewser; 01-01-2013 at 01:36 PM. Reason: to add snapshots
The Following 4 Users Say Thank You to nithindra For This Useful Post:

5 Lastest Threads by nithindra
Thread Forum Last Poster Replies Views Last Post
Simple Agi Ondh Love Story 2012 Kannada DVDRip... Kannada MuXeR 5 1161 07-29-2013 04:02 AM
Drama Kannada DVDRip 2012 NBNP Kannada TT Manisai 5 868 04-20-2013 10:09 AM
Lovely (2012) Telugu 720p BRRiP x264 AAC-... Telugu Blu-Ray TT Manisai 4 687 02-25-2013 01:50 PM
Dabangg 2 (2012) - 1080P[HD] - Video Song - x264... Hindi Others pewser 3 1080 01-25-2013 11:49 AM
Chingari Kannada Dvdrip (2012)... Kannada MAJOR 4 1136 01-25-2013 06:19 AM

(#2 (permalink))
Old
pewser's Avatar
| TTTeam |
Rep Power: 558
pewser pewser pewser pewser pewser pewser pewser pewser pewser pewser pewser
 
01-01-2013, 01:35 PM

Use Clickable Forum Code to Upload your Images to your Thread & Start Seeding asap.


(#3 (permalink))
Old
|Beginner|0+
Points: 97, Level: 1 Points: 97, Level: 1 Points: 97, Level: 1
Level up: 99% Level up: 99% Level up: 99%
Activity: 0% Activity: 0% Activity: 0%
Rep Power: 0
moron
 
01-02-2013, 04:31 AM

Thanks !!
Closed Thread

Bookmarks

Tags
kannada

Thread Tools

Posting Rules
You may not post new threads
You may not post replies
You may not post attachments
You may not edit your posts

BB code is On
Smilies are On
[IMG] code is On
HTML code is Off
Trackbacks are On
Pingbacks are On
Refbacks are On


Similar Threads
Thread Thread Starter Forum Replies Last Post
Drama Kannada DVDRip 2012 NBNP nithindra Kannada 5 05-09-2013 04:12 PM
Vishnuvardhana Kannada DVDRip NBNP nithindra Kannada 1 12-08-2012 12:47 PM
100% Love (2011) - 1Cd - DvdRip -mkv- MP3 - ESubs esakkiappan05 Telugu DVD-Rip 1 09-25-2011 01:20 PM

BitCoin: 1JrGbW2zyJSDGjKSvFt4F5m3eRTSQ8qwyt



All times are GMT. The time now is 06:26 PM.


Powered by vBulletin® Version 3.8.7
Copyright ©2000 - 2014, vBulletin Solutions, Inc.
Search Engine Friendly URLs by vBSEO ©2011, Crawlability, Inc.
TTTeams
2003 - 2011 - TamilTorrent.com - TamilTorrent.net - TamilTorrent.tv - TamilTorrents.com - TamilTorrents.net - TamilTorrents.tv